Погружение в классику
Погружение в классику
RSS
аудио
Меню сайта
Поиск
по заголовкам
по всему сайту
поиск от Google

Из нашего архива
Эли Сигмейстер - Произведения для фортепиано [аудио]
Фриц Крейслер исполняет собственные произведения. [аудио]
И.С.Бах - Английские сюиты BWV 806-811 (Густав Леонхардт - клавесин) [аудио]
Календарь новостей
«  Январь 2010  »
ПнВтСрЧтПтСбВс
    123
45678910
11121314151617
18192021222324
25262728293031

Приветствуем Вас, Гость.
Текущая дата: Воскресенье, 24 Июня 18, 00:47
Главная страница » 2010 » Январь » 31 » Георг Фридрих Гендель. Лукреция. Кантаты для контратенора. Жерар Лен, Il Seminario musicale
Георг Фридрих Гендель. Лукреция. Кантаты для контратенора. Жерар Лен, Il Seminario musicale

Теги: Il Seminario musicale, Гендель, Жерар Лен, Handel, Gerard Lesne

George Frideric Handel (1685-1759)
Lucrezia: Cantates pour alto solo
Gerard Lesne, Il Seminario musicale

Tracklist

1. Splenda l'alba in oriente  11:12
2. La Lucrezia  17:09
3. Trio Sonata Op.5 No.4 en sol majeur - Allegro  2:02
4. - A tempo ordinano - Allegro non presto  3:57
5. - Passacaglia  4:56
6. - Giga  1:12
7. - Menuet  2:00
8. Mi palpita il cor  13:21
9. Carco sempre di gloria  13:37

Total time: 70'00"

Gerard Lesne (alto)
Il Seminario Musicale

Serge Saitta (flute)
Philippe Suzanne (flute)
Michel Henry (oboe)
Anita Mitterer, Simon Heyerick (violin)
Jacques Maillard (viola)
Bruno Cocset (cello)
Pascal Monteilhet (theorbo)
Richard Myron (double bass)
Blandine Rannou (harpsichord)

Recording: Saint-Denis, Chapelle de la Legion d'Honneur, October 1990

https://cloud.mail.ru/public/09b9623a7e11/HLLISM.rar
https://yadi.sk/d/40DIKuCjdpVm2
(FLAC, image+.cue, log, scans, 336 MB)
https://cloud.mail.ru/public/3765d1a8ccbd/HLLISMm.rar
https://yadi.sk/d/1uwjRNyjdpVmL
(MP3, vbr ~245 kbps V0, scans, 122 MB)
pass: lucrEZia

Пожалуйста, сообщайте о неработающих ссылках в ЛС.
Категория: аудио | Просмотров: 2629 | Добавил(а): v2v
Важно: что делать, если ссылка на скачивание не работает.
Понравился материал?
Ссылка
html (для сайта, блога, ...)
BB (для форума)
Комментарии
Всего комментариев: 10
1. Michael Orlov (CaterinaSforza)   (31 Января 10 21:09)
Умничка!!Закончила 5 дисков.
А теперь что нас ждёт?

3. Виктория (v2v)   (31 Января 10 21:22)
Ну, не знаю... Наверное, Вивальди...
Но сначала 8 разных исполнений Лукреции :)

2. (climber)   (31 Января 10 21:10)
Спасибо!!!

4. Michael Orlov (CaterinaSforza)   (31 Января 10 21:32)
Викусь,а не могли бы вы делать такие логи,как того требуют админы Торрентс.ру?
Приведу пример таких логов:

Exact Audio Copy V0.99 prebeta 4 from 23. January 2008

Отчёт EAC об извлечении, выполненном 2. января 2010, 18:20

The Hanover Band & Chorus - Nicholas McGegan / Handel - Serse CD1

Дисковод: Optiarc DVD RW AD-7173A Adapter: 1 ID: 1

Режим чтения : Достоверность
Использование точного потока : Да
Отключение кэша аудио : Да
Использование указателей C2 : Нет

Коррекция смещения при чтении : 48
Способность читать области Lead-in и Lead-out : Нет
Заполнение пропущенных сэмплов тишиной : Да
Удаление блоков с тишиной в начале и конце : Нет
При вычислениях CRC использовались нулевые сэмплы : Да
Интерфейс : Встроенный Win32-интерфейс для Win NT/2000

Выходной формат : Внутренние WAV-операции
Формат сэмплов : 44.100 Гц; 16 бит; стерео

TOC извлечённого CD

Трек | Старт | Длительность | Начальный сектор | Конечный сектор
---------------------------------------------------------------------
1 | 0:00.05 | 1:25.60 | 5 | 6439
2 | 1:25.65 | 1:59.25 | 6440 | 15389
3 | 3:25.15 | 1:51.10 | 15390 | 23724
4 | 5:16.25 | 0:46.20 | 23725 | 27194
5 | 6:02.45 | 2:47.15 | 27195 | 39734
6 | 8:49.60 | 0:29.05 | 39735 | 41914
7 | 9:18.65 | 1:50.70 | 41915 | 50234
8 | 11:09.60 | 2:27.57 | 50235 | 61316
9 | 13:37.42 | 0:23.35 | 61317 | 63076
10 | 14:01.02 | 1:57.33 | 63077 | 71884
11 | 15:58.35 | 1:18.40 | 71885 | 77774
12 | 17:17.00 | 1:38.70 | 77775 | 85194
13 | 18:55.70 | 1:40.10 | 85195 | 92704
14 | 20:36.05 | 1:14.60 | 92705 | 98314
15 | 21:50.65 | 2:31.12 | 98315 | 109651
16 | 24:22.02 | 1:14.13 | 109652 | 115214
17 | 25:36.15 | 2:13.52 | 115215 | 125241
18 | 27:49.67 | 0:32.40 | 125242 | 127681
19 | 28:22.32 | 2:11.15 | 127682 | 137521
20 | 30:33.47 | 0:13.10 | 137522 | 138506
21 | 30:46.57 | 2:18.00 | 138507 | 148856
22 | 33:04.57 | 2:00.73 | 148857 | 157929
23 | 35:05.55 | 0:21.05 | 157930 | 159509
24 | 35:26.60 | 0:39.00 | 159510 | 162434
25 | 36:05.60 | 0:57.00 | 162435 | 166709
26 | 37:02.60 | 1:49.70 | 166710 | 174954
27 | 38:52.55 | 0:39.00 | 174955 | 177879
28 | 39:31.55 | 1:37.45 | 177880 | 185199
29 | 41:09.25 | 7:08.65 | 185200 | 217364
30 | 48:18.15 | 0:35.55 | 217365 | 220044
31 | 48:53.70 | 0:30.52 | 220045 | 222346
32 | 49:24.47 | 4:39.03 | 222347 | 243274
33 | 54:03.50 | 0:23.17 | 243275 | 245016
34 | 54:26.67 | 4:21.35 | 245017 | 264626
35 | 58:48.27 | 1:08.38 | 264627 | 269764
36 | 59:56.65 | 4:34.35 | 269765 | 290349
37 | 64:31.25 | 0:16.45 | 290350 | 291594
38 | 64:47.70 | 3:59.27 | 291595 | 309546

Характеристики диапазона извлечения и сообщения об ошибках

Выбранный диапазон

Имя файла C:\Documents and Settings\Handel - Serse CD1.wav

Пиковый уровень 99.1 %
Качество диапазона 100.0 %
CRC копии BB698A59
Копирование... OK

Ошибок не произошло

Конец отчёта

Просто,если вы не будете против,я что-то из вашего буду публиковать на этом форуме,с обязательной пометкой,что рип ваш. :'(


5. Виктория (v2v)   (31 Января 10 21:59)
Именно такие логи присутствуют в каждом архиве. Я несколько раз выкладывалась на torrents.ru, раздачи всегда получали статус проверенных, так что логи их администрацию устраивают. Не все рипы, выложенные и планируемые к выкладке, мои собственные, но те, что мои - перераздавайте на здоровье, конечно.

6. Евгений (Евгений_Ко)   (31 Января 10 23:01)
Спасибо за полный комплект и за каждый диск отдельно, и за этот! bravo appl booze

7. Savelych (Savelych)   (01 Февраля 10 09:39)
Спасибо!

8. alexandr (camakas)   (03 Февраля 10 11:45)
Спасибо!

9. alex sidmak (sidmak)   (27 Августа 11 01:58)
Спасибо!

10. Сергей Федорович (sergfv)   (03 Сентября 16 13:04)
Спасибо!

Добавлять комментарии могут только зарегистрированные пользователи.
[ Регистрация | Вход ]

Аудио/видеозаписи и литература предоставляются исключительно для ознакомления. После ознакомления они должны быть удалены, иначе, вероятно, Вами будет нарушен закон "об авторском праве и смежных правах".
Помощь тяжело больным детям. Подробнее.
Форма входа








ПОГРУЖЕНИЕ В КЛАССИКУ. Здесь живет бесплатная классическая музыка в mp3 и других форматах.