Погружение в классику
Погружение в классику
RSS
аудио
Меню сайта
Поиск
по заголовкам
по всему сайту
поиск от Google

Из нашего архива
Сергей Рахманинов - Полное собрание записей выступлений с 1919 по 1942 год - CD1 [аудио]
Клод Дебюсси-Все прелюдии. Играет Вальтер Гизекинг [аудио]
И. С. Бах - Страсти по Матфею - Карл Рихтер [аудио]
Календарь новостей
«  Январь 2009  »
ПнВтСрЧтПтСбВс
   1234
567891011
12131415161718
19202122232425
262728293031

Приветствуем Вас, Гость.
Текущая дата: Понедельник, 20 Ноябрь 17, 14:57
Главная страница » 2009 » Январь » 2 » Тосканини - Увертюры Россини
Тосканини - Увертюры Россини

Год выпуска диска: 1999 
Производитель диска: BMG Japan 
Аудио кодек: APE 
Битрейт аудио: lossless 
Продолжительность: 1:08:39 
Размер: 271 Мб

Треклист: 
01. L'Italiana in Algeri Overture 0:07:30.50 
02. Il Signor Bruschino Overture 0:04:28.03 
03. Il Barbiere di Siviglia Overture 0:07:03.60 
04. La Cenerentola Overture 0:07:35.12 
05. La gazza ladra Overture 0:09:04.00 
06. Le siege de Corinthe Overture 0:09:04.63 
07. Semiramide Overture 0:11:50.12 
08. Guillaume Tell Overture 0:12:02.23 

Записи 1945-1953 годов. 

Скачать: 

DepositFiles.com :: 
http://depositfiles.com/files/7478205 
http://depositfiles.com/files/7478835 
http://depositfiles.com/files/7479193 

Ifolder.ru :: 
http://prohodnoy-dvor.ifolder.ru/7851100 
http://prohodnoy-dvor.ifolder.ru/7851926 
http://prohodnoy-dvor.ifolder.ru/7852166 

Категория: аудио | Просмотров: 2362 | Добавил(а): tigerrr
Важно: что делать, если ссылка на скачивание не работает.
Понравился материал?
Ссылка
html (для сайта, блога, ...)
BB (для форума)
Комментарии
Всего комментариев: 4
1. Oktavio (Oktavio)   (03 Январь 09 12:35)
Вот люблю я Тосканини, хоть чё со мной делай! love

2. Пётр (pmarkov)   (03 Январь 09 14:18)
Спасибо за диск!
Вот cue-файл к диску:
либо по ссылке
http://files.mail.ru/GSQFWC

либо непосредственно в текстовом виде (между двумя горизонтальными линиями)
___________________________
REM GENRE Classical
REM DATE 1999
PERFORMER "Arturo Toscanini & NBC Symphony Orchestra"
TITLE "Arturo Toscanini & NBC Symphony Orchestra - Rossini Overtures"
FILE "Arturo Toscanini & NBC Symphony Orchestra - Rossini Overtures.ape" WAVE
TRACK 01 AUDIO
TITLE "L'Italiana in Algeri Overture"
PERFORMER "Arturo Toscanini"
INDEX 01 00:00:00
TRACK 02 AUDIO
TITLE "Il Signor Bruschino Overture"
PERFORMER "Arturo Toscanini"
INDEX 01 07:30:18
TRACK 03 AUDIO
TITLE "Il Barbiere di Siviglia Overture"
PERFORMER "Arturo Toscanini"
INDEX 01 11:59:20
TRACK 04 AUDIO
TITLE "La Cenerentola Overture"
PERFORMER "Arturo Toscanini"
INDEX 01 19:03:30
TRACK 05 AUDIO
TITLE "La gazza ladra Overture"
PERFORMER "Arturo Toscanini"
INDEX 01 26:38:20
TRACK 06 AUDIO
TITLE "Le siege de Corinthe Overture"
PERFORMER "Arturo Toscanini"
INDEX 01 35:42:20
TRACK 07 AUDIO
TITLE "Semiramide Overture"
PERFORMER "Arturo Toscanini"
INDEX 01 44:48:18
TRACK 08 AUDIO
TITLE "Guillaume Tell Overture"
PERFORMER "Arturo Toscanini"
INDEX 01 56:37:30
___________________________

Строки
TITLE "Arturo Toscanini & NBC Symphony Orchestra - Rossini Overtures"
и
FILE "Arturo Toscanini & NBC Symphony Orchestra - Rossini Overtures.ape" WAVE

должны быть записаны в 2, а не в 4 строки (html-редактор разбил каждую строку на две).
Проигрывать cue-файлы очень удобно проигрывателем Foobar2000, который можно взять, например по ссылке
http://hi-copy.livejournal.com/20503.html
Я, в отличие от автора цитируемой страницы, использую версию Goujat - она имеет очень удобное дерево каталогов в левой части окна.


3. Георгий (georgy50)   (28 Май 09 21:57)
Rossini Overtures - Tullio Serafin возможно-ли послушать ?

4. alexandr (camakas)   (16 Июль 09 23:26)
Спасибо!Вот только нарезать треки пришлось вручную. Щательн-ей, ребята, надо!

Добавлять комментарии могут только зарегистрированные пользователи.
[ Регистрация | Вход ]

Аудио/видеозаписи и литература предоставляются исключительно для ознакомления. После ознакомления они должны быть удалены, иначе, вероятно, Вами будет нарушен закон "об авторском праве и смежных правах".
Помощь тяжело больным детям. Подробнее.
Форма входа








ПОГРУЖЕНИЕ В КЛАССИКУ. Здесь живет бесплатная классическая музыка в mp3 и других форматах.