Погружение в классику
Погружение в классику
RSS
аудио
Меню сайта
Поиск
по заголовкам
по всему сайту
поиск от Google

Из нашего архива
Доменико Скарлатти. Сонаты для фортепиано, клавесина, мандолины и клавесина. [аудио]
Вальтер Гизекинг играет Скрябина: 24 прелюдии,Соч.11 [аудио]
Генрик Венявский, кусочек 2-го скрипичного концерта, Ицхак Перлман [видео]
Календарь новостей
«  Март 2018  »
ПнВтСрЧтПтСбВс
   1234
567891011
12131415161718
19202122232425
262728293031

Приветствуем Вас, Гость.
Текущая дата: Воскресенье, 22 Апреля 18, 02:07
Главная страница » 2018 » Март » 21 » Французские вокалисты периода с 1948-го по 1965-й год
Французские вокалисты периода с 1948-го по 1965-й год

Теги: RITA GORR, Martha Angelici, Jobin, Gedda, Michel Dens, Crespin, Janine Micheau, Henri Legay


CD 01 - Régine Crespin 
CD 02 - Régine Crespin & Solange Michel 
CD 03 - Martha Angelici 
CD 04 - Rita Gorr 
CD 05 - Rita Gorr & Janine Micheau & Ernest Blanc 
CD 06 - Janine Micheau & Ernest Blanc 
CD 07 - Michel Dens 
CD 08 - Nicolai Gedda & Jean Borthayre 
CD 09 - Albert Lance & Raoul Jobin & Paul Finel 
CD 10 - Henri Legay

Conductors: : 
Georges Prêtre, Otto Ackermann, André Cluytens, 
Jésus Etcheverry, Edward Downes, Lawrence Collingwood, 
Pierre Dervaux, Albert Wolff, Georges Tzipine.

Recordings made between 1948 and 1965.

lossless
3,3 Gb (booklet +)



ПЕРЕЗАЛИТО с рабочими куями :

Категория: аудио | Просмотров: 739 | Добавил(а): theodirk
Важно: что делать, если ссылка на скачивание не работает.
Понравился материал?
Ссылка
html (для сайта, блога, ...)
BB (для форума)
Комментарии
Всего комментариев: 23
1. no name (Polar_Bear)   (21 Марта 18 07:58)
bravo bravo bravo

2. Вячеслав (Егор)   (21 Марта 18 08:48)
appl appl appl

3. alex sidmak (sidmak)   (21 Марта 18 10:22)
И Гедда тоже был француз?
Я думал - швед. Какой конфуз! :D

СПАСИБО!

4. (theodirk)   (21 Марта 18 10:37)
:D я думал Терресто первым отпишется.

5. (theodirk)   (21 Марта 18 10:45)
PS перед прослушиванием в названии файлов убрать умляуты, в куях поменять кодировку

6. alex sidmak (sidmak)   (21 Марта 18 11:12)
менять кодировку уже поздно. cue-файлы в кодировке ANSI и все умляуты в них уже заменены на кракозябры. Напомню для любителей оригинальных французских, немецких и прочих названий файлов - сохранять cue-файлы нужно в кодировке UTF-8 и тогда foobar будет читать их без проблем.

Минимум телодвижений:

1. Поменять имя файла FLAC
Les années Pathé - CD1.flac на Les annees Pathe - CD1.flac
2. Открыть программой Блокнот (есть во всех версиях Windows).cue файл и в строке FILE вставить новое имя файла - FILE "Les annees Pathe - CD1.flac" WAVE

Всё заработает, но отдельные кракозябры в названиях треков останутся.

7. (theodirk)   (21 Марта 18 11:38)
Кью-файл с крокозябрами открываем в Total командере (или любом текст. редакторе н-р EmEditor) в режиме просмотра, выделяем, копируем и сохраняем в блокноте в нужной кодировке (UTF-8) :

REM GENRE Opera
REM DATE 2003
REM DISCID 8712250B
REM COMMENT "ExactAudioCopy v1.1"
PERFORMER "Regine Crespin"
TITLE "CD 01 - Régine Crespin"
FILE "Les annees Pathe - CD1.flac" WAVE
TRACK 01 AUDIO
TITLE "Verdi: Un ballo in maschera - Ecco l'orrido campo"
PERFORMER "Regine Crespin"
INDEX 00 00:00:00
INDEX 01 00:00:33
TRACK 02 AUDIO
TITLE "Verdi: Macbeth - Una macchia č qui tuttora"
PERFORMER "Regine Crespin"
INDEX 00 09:52:63
INDEX 01 09:56:25
TRACK 03 AUDIO
TITLE "Verdi: Don Carlo - O don fatale"
PERFORMER "Regine Crespin"
INDEX 00 22:13:35
INDEX 01 22:16:64
TRACK 04 AUDIO
TITLE "Verdi: Don Carlo - Tu che le vanitŕ"
PERFORMER "Regine Crespin"
INDEX 00 26:46:57
INDEX 01 26:49:34
TRACK 05 AUDIO
TITLE "Verdi: Aida - Ritorna vincitor"
PERFORMER "Regine Crespin"
INDEX 00 36:45:35
INDEX 01 36:48:69
TRACK 06 AUDIO
TITLE "Wagner: Lohengrin - Einsam in trüben Tagen"
PERFORMER "Regine Crespin"
INDEX 00 44:24:26
INDEX 01 44:28:03
TRACK 07 AUDIO
TITLE "Wagner: Lohengrin - Euch lüften, die mein Klagen"
PERFORMER "Regine Crespin"
INDEX 00 50:30:41
INDEX 01 50:32:54
TRACK 08 AUDIO
TITLE "Wagner: La Walkyrie - Eine Waffe lass mich dir weisen"
PERFORMER "Regine Crespin"
INDEX 00 54:35:19
INDEX 01 54:39:04
TRACK 09 AUDIO
TITLE "Wagner: Parsifal - Ich sah das Kind"
PERFORMER "Regine Crespin"
INDEX 00 59:54:23
INDEX 01 59:58:05
TRACK 10 AUDIO
TITLE "Wagner: Tannhäuser - Dich, teure Halle"
PERFORMER "Regine Crespin"
INDEX 00 65:20:07
INDEX 01 65:23:44
TRACK 11 AUDIO
TITLE "Wagner: Tannhäuser - Allmächt'ge Jungfrau"
PERFORMER "Regine Crespin"
INDEX 00 70:23:35
INDEX 01 70:25:70

8. (theodirk)   (21 Марта 18 11:55)
в тотал коммандере делается за минуту без осечек.

11. alex sidmak (sidmak)   (21 Марта 18 12:12)
Может потратите дополнительно 10 минут на исправления этих файлов? shy

14. (theodirk)   (21 Марта 18 12:26)
ok
но не раньше, чем домой вернусь

9. alex sidmak (sidmak)   (21 Марта 18 12:00)
(или любом текст. редакторе)

Далеко не в любом. А ставить ради этого Total командер... :'(

10. (theodirk)   (21 Марта 18 12:10)
софтинка полезная, рекомендую поюзать

12. alex sidmak (sidmak)   (21 Марта 18 12:17)
Некуда мне его ставить. Системный диск надо менять - быстрый, но маленький.

13. (theodirk)   (21 Марта 18 12:26)
удовольствие весит 22 Mb

15. (komponist)   (21 Марта 18 13:48)
Мега-гигантское спасибо!! Здесь, среди прочего великолепия, и диск божественной Риты Горр есть (уже слушаю!)!
O HAPPY DAY!! bravo bravo bravo bravo

16. alexey semlyanoy (terrestro)   (21 Марта 18 14:01)
Я, если честно, честно, немножко притормозил... :'(
Но благодарность, тем не менее, Вам шлю всенепременно.
Хоть чуть не всё из этих записей знакомо мне, но всё-ж не худо-б сверить...

17. (theodirk)   (21 Марта 18 17:26)
Восстановленные cue-файлы
https://yadi.sk/d/kA60sT1M3TcJJf

18. alex sidmak (sidmak)   (21 Марта 18 20:08)
Как говаривал один известный персонаж - "Никому, ничего нельзя поручить. Всё приходится делать самому!" :)

Звуковые файлы таки придётся переименовывать.

Мой вариант:
https://cloud.mail.ru/public/Ah3b/a4UwzUc1p

НИЧЕГО ПЕРЕИМЕНОВЫВАТЬ НЕ НАДО.
Кладём в папку, запускаем и всё играет.

p.s. Ваш хвалёный Total, как я ни пытался его настроить, мне в этом помочь не смог. Только при подключении внешней программы.
"А зачем нам посредники? Нам посредники не нужны!"

:D

19. no name (Polar_Bear)   (22 Марта 18 09:24)
appl appl appl

20. Сергей (nibelung)   (22 Марта 18 09:52)
Знаю этот комплект. У меня лежит невостребованный...

21. (theodirk)   (22 Марта 18 12:33)
ПЕРЕЗАЛИТО с рабочими куями 22-03-2018

22. Taras V. (little_listener)   (22 Марта 18 14:17)
Большое спасибо bravo bravo bravo

23. Lev Krylov (parmelia)   (22 Марта 18 16:39)
Благодарю!!!

Добавлять комментарии могут только зарегистрированные пользователи.
[ Регистрация | Вход ]

Аудио/видеозаписи и литература предоставляются исключительно для ознакомления. После ознакомления они должны быть удалены, иначе, вероятно, Вами будет нарушен закон "об авторском праве и смежных правах".
Помощь тяжело больным детям. Подробнее.
Форма входа








ПОГРУЖЕНИЕ В КЛАССИКУ. Здесь живет бесплатная классическая музыка в mp3 и других форматах.