Погружение в классику
Погружение в классику
RSS
аудио
Меню сайта
Поиск
по заголовкам
по всему сайту
поиск от Google

Из нашего архива
И.С. Бах, Виолончельные сюиты в транскрипции для гитары. Андреас фон Вангенхайм, 2 CD. (APE) [аудио]
Г.Венявский – Полонез № 1 Ре Мажор, Опус 4. [аудио]
А.Б.Микеланджели играет произведения Шопена. [аудио]
Календарь новостей
«  Ноябрь 2016  »
ПнВтСрЧтПтСбВс
 123456
78910111213
14151617181920
21222324252627
282930

Приветствуем Вас, Гость.
Текущая дата: Суббота, 29 Апрель 17, 14:35
Главная страница » 2016 » Ноябрь » 15 » Г.Ф. Гендель. ИЗРАИЛЬ В ЕГИПТЕ, оратория HWV 54
Г.Ф. Гендель. ИЗРАИЛЬ В ЕГИПТЕ, оратория HWV 54

Г.Ф. Гендель. ИЗРАИЛЬ В ЕГИПТЕ, оратория HWV 54

Оратория «Израиль в Египте» – величественное эпическое полотно. Она была написана Генделем в 1738 г. и является ярким примером хоровой оратории или оратории без действующих лиц. Главным и единственным действующим лицом оратории является народ Израиля. Повествование о его судьбе, страданиях, надеждах и радостях составляет главное содержание оратории.
В основу произведения положен библейский сюжет о чудесном освобождении древнееврейского народа из египетского плена, о переходе через Чермное (Красное) море в Землю обетованную. Собственно, фабула, развитие сюжетной линии в «Израиле в Египте» отсутствует. Первая часть посвящена последовательному описанию египетских казней и происшедшего чуда: перехода евреев через море и гибели египтян. Описание египетских казней в оратории занимает десять номеров (4-13). В №4 рассказывается о том, как вода во всех источниках превратилась в кровь; в №5 – о лягушках, разносивших чуму; в №6 – о налетевших стаях мух и саранчи, уничтоживших посевы; в №7 – о разразившемся дожде с градом; в №8 – о страшной мгле, покрывшей землю… На протяжении всей второй части оратории народ восхваляет Бога, торжествуя и радуясь избавлению от рабства.
В оратории нет драматических столкновений и конфликтов, нет обрисовки отдельных лиц. «Израиль в Египте» – народная хоровая эпопея, или, как называет ее Р.Роллан, «безликая эпопея». Хоры определяют склад и характер музыки. Из 30 номеров, составляющих композицию, 19 отведено хорам; остальные номера – 4 арии, 3 дуэта, 4 коротеньких речитатива – имеют второстепенное значение. Возможно, что упомянутые выше несколько арий и дуэтов Гендель ввел лишь с целью разнообразить некоторую однотонность сплошного хорового звучания, хотя он не останавливается и перед тем, чтобы подряд, один за другим дать восемь хоровых эпизодов.
В «Израиле в Египте» композитор демонстрирует редкую творческую изобретательность, непревзойденное мастерство хорового письма. Он виртуозно использует громадные выразительные возможности, заложенные в самой природе хоровой музыки: насыщает фактуру полнозвучием восьмиголосного хорового состава, извлекает множество эффектов из противопоставления двух четырехголосных хоров: излагает их то в форме фуги или свободной имитации, то собирает все звучание в стройные аккордовые колоннады, часто противопоставляет хор с оркестровым tutti воздушному звучанию a cappella или один солирующий голос – всей массе хора и оркестра.
Гендель использовал почти все полифонические формы эпохи барокко: большая хоровая фуга, небольшие фугато, фуга на хорал, рассредоточенная фуга, хоровой имитационный речитатив, мотетные построения.
Оркестр существенно дополняет хор. Положение оркестра в оратории «Израиль в Египте» не ограничивается вспомогательной, аккомпанирующей ролью. Происходящие события представлены в виде серии красочных музыкальных картин и обрисованы средствами оркестровой музыки. Таким образом, задача изобразительная, описательная в «Израиле в Египте» возложена на оркестр. Живописуя и иллюстрируя смысл произносимого хором текста, оркестр способствует «наглядности», конкретной образности музыкального письма.

Nancy Argenta                   I сопрано
Emily Van Evera                II сопрано
Timothy Wilson                 альт
Anthony Rolfe Johnson    тенор
David Thomas                   I бас
Jeremy White                   II бас

TAVERNER CHOIR&PLAYERS
п/у Andrew Parrott


Формат flac
Самораспаковывающийся архив в 2 частях

CD1 https://yadi.sk/d/kVbuc-YeydEdv

CD2 https://yadi.sk/d/4I9XdYL-ydEgm



Категория: аудио | Просмотров: 7000 | Добавил(а): salezian
Важно: что делать, если ссылка на скачивание не работает.
Понравился материал?
Ссылка
html (для сайта, блога, ...)
BB (для форума)
Комментарии
Всего комментариев: 36
1. Вячеслав (mvd23)   (17 Ноябрь 09 18:36)
Спасибо, как раз то что надо!

2. Михаил (parti)   (14 Январь 10 21:07)
Спасибо, Вадим!

3. Vadim (salezian)   (14 Январь 10 21:56)
И Вам спасибо за внимание)))

4. Sergey (PhyMer)   (19 Март 10 06:44)
Здравствуйте! А мне распаковщик пишет, что архивы битые...

5. Vadim (salezian)   (19 Март 10 11:35)
Охх... Попробуйте, пожалуйста, еще раз. Если не выйдет, я перезалью.

6. Sergey (PhyMer)   (19 Март 10 12:46)
Вадим, я попробовал. Закачка тормознула на 97%, утром докачал, но архив не открылся :( Если не сложно, перезалейте, пожалуйста. Заранее благодарю.

7. Vadim (salezian)   (19 Март 10 13:05)
Сергей, сегодня к вечеру обязательно все сделаю.

8. Sergey (PhyMer)   (19 Март 10 13:57)
Спасибо за оперативность :) Моя жена плохо видит, а ей лекцию по Генделю читать в следующий четверг - надеюсь, успеет ;)

9. Vadim (salezian)   (19 Март 10 22:00)
Перезалил, Сергей, качайте на здоровье.

10. alex sidmak (sidmak)   (21 Март 10 11:57)
Мда... оказалось я скачал конструктор "Умелые ручки".
Два wav файла (т.е. вообще без какого-либо сжатия).
Это, конечно, неплохо, но ...
Как теперь это всё поделить на треки? На слух?
Судя по буклету треков должно быть как минимум 28 штук.
Может всё-таки сделаете на досуге cue файлы к обоим дискам?

11. Sergey (PhyMer)   (26 Март 10 01:15)
Вадим, моя искренняя благодарность! bravo Сегодняшняя лекция прошла на ура! appl Правда, по духовной музыке 17-18 веков, а Генделя перенесли на следующий четверг, но подготовить материал мы успели благодаря Вам! appl

12. Vadim (salezian)   (26 Март 10 01:52)
Очень-очень рад, что смог послужить делу посвещения)))) И Вам спасибо на добром слове))) А самое большое спасибо Генделю! :)

13. Евгений (Евгений_Ко)   (26 Декабрь 10 21:20)
Ссылка-то умерла.

14. почитатель (kubra)   (26 Декабрь 10 21:44)
Евгений, и что надо сделать? B)

15. Vadim (salezian)   (26 Декабрь 10 23:59)
Я восстановлю ссылку в течение пары дней.

16. (nixelle)   (09 Сентябрь 11 22:57)
Большое спасибо за восстановление ссылки appl appl appl

17. Александр (rialexr)   (09 Декабрь 11 13:15)
Спасибо! Только я не понял: в посте написано Паррот, а в архиве Гардинер? Это так должно быть?

18. missa di voce de pacem (messy)   (05 Май 12 22:55)
i downloaded then i discover that version by Garednier not Parrot , I'd like to discover Parrot's version too

19. Oktavio (Oktavio)   (06 Март 13 18:28)
http://files.mail.ru/M97IZNM97IZNM97IZNM97IZNM97IZNXX

20. Виктор Зиновьев (werooozer)   (07 Март 13 01:13)
Часть 1 архива приказала долго жить. Часть два из солидарности с первой отказалась разархивироваться.
Экая незадача!

21. Виктор Зиновьев (werooozer)   (07 Март 13 01:49)
Однако, подобно героическому израильскому народу, вырвавшемуся из египетского плена, Оратория "Израиль в Египте"(с Гардинером) вырвалась из недр Интернета к дожидавшимся её "погруженцам!

http://zalivalka.ru/34000

Товарищи! Не проходим мимо! Насосы на скачку!

22. Родион Лирник (Лирник)   (07 Март 13 20:41)
Роскошная музыка!!! А есть ли запись с Маккерасом?

Спасибо

appl bravo appl bravo appl

23. Oktavio (Oktavio)   (07 Март 13 22:59)
Мерси, Виктор!
А что было на дисках 1 и 2?

24. Сергей Федорович (sergfv)   (15 Ноябрь 16 11:45)
Спасибо!

25. Alex Rayev (Rayev)   (15 Ноябрь 16 11:54)
Замечательно!
Вадим! Спасибо! :) appl

26. Wilhelm Fuchs (wilhelmuchs)   (15 Ноябрь 16 15:37)
Danke :https://rutracker.org/forum/viewtopic.php?t=2058475

27. Wilhelm Fuchs (wilhelmuchs)   (15 Ноябрь 16 16:28)
Handel - Israel In Egypt CD1.cue :

REM GENRE Oratorio
REM DATE 2009
REM DISCID 9207EC0C
REM COMMENT "ExactAudioCopy v0.99pb4"
PERFORMER "John Eliot Gardiner (Monteverdi Choir & English Baroque Soloists)"
TITLE "Handel - Israel In Egypt CD1"
FILE "Handel - Israel In Egypt CD1.flac" WAVE
TRACK 01 AUDIO
TITLE "Overture"
PERFORMER "John Eliot Gardiner (Monteverdi Choir & English Baroque Soloists)"
INDEX 00 00:00:00
INDEX 01 00:00:33
TRACK 02 AUDIO
TITLE "Part One. No.1 Recitative (Tenor) - Now there arose a new king; No. 2 Chorus ..."
PERFORMER "John Eliot Gardiner (Monteverdi Choir & English Baroque Soloists)"
INDEX 01 01:56:45
TRACK 03 AUDIO
TITLE "No.3 Recitative (Tenor) - Then sent He Moses; No. 4 Chorus - They loathed to ..."
PERFORMER "John Eliot Gardiner (Monteverdi Choir & English Baroque Soloists)"
INDEX 01 05:47:33
TRACK 04 AUDIO
TITLE "No.5 Air (Alto) - Their land brought forth frogs"
PERFORMER "John Eliot Gardiner (Monteverdi Choir & English Baroque Soloists)"
INDEX 00 08:18:45
INDEX 01 08:19:45
TRACK 05 AUDIO
TITLE "No.6 Chorus - He spake the word"
PERFORMER "John Eliot Gardiner (Monteverdi Choir & English Baroque Soloists)"
INDEX 01 10:34:45
TRACK 06 AUDIO
TITLE "No.7 Chorus - He gave them hailstones for rain"
PERFORMER "John Eliot Gardiner (Monteverdi Choir & English Baroque Soloists)"
INDEX 00 12:37:45
INDEX 01 12:38:45
TRACK 07 AUDIO
TITLE "No.8 Chorus - He sent a thick darkness"
PERFORMER "John Eliot Gardiner (Monteverdi Choir & English Baroque Soloists)"
INDEX 00 14:41:45
INDEX 01 14:44:45
TRACK 08 AUDIO
TITLE "No.9 Chorus - He smote all the first-born of Egypt"
PERFORMER "John Eliot Gardiner (Monteverdi Choir & English Baroque Soloists)"
INDEX 00 17:28:45
INDEX 01 17:30:45
TRACK 09 AUDIO
TITLE "No.10 Chorus - But as for his people"
PERFORMER "John Eliot Gardiner (Monteverdi Choir & English Baroque Soloists)"
INDEX 01 19:49:08
TRACK 10 AUDIO
TITLE "No.11 Chorus - Egypt was glad when they departed"
PERFORMER "John Eliot Gardiner (Monteverdi Choir & English Baroque Soloists)"
INDEX 01 23:49:70
TRACK 11 AUDIO
TITLE "No.12 Chorus - He rebuked the Red Sea"
PERFORMER "John Eliot Gardiner (Monteverdi Choir & English Baroque Soloists)"
INDEX 01 26:53:08
TRACK 12 AUDIO
TITLE "No.13 Chorus - And Israel saw that great work"
PERFORMER "John Eliot Gardiner (Monteverdi Choir & English Baroque Soloists)"
INDEX 01 29:51:20

28. Wilhelm Fuchs (wilhelmuchs)   (15 Ноябрь 16 16:28)
Handel - Israel in Egypt CD2.cue

REM GENRE Oratorio
REM DATE 2009
REM DISCID EE104910
REM COMMENT "ExactAudioCopy v0.99pb4"
PERFORMER "John Eliot Gardiner (Monteverdi Choir & English Baroque Soloists)"
TITLE "Handel - Israel in Egypt CD2"
FILE "Handel - Israel in Egypt CD2.flac" WAVE
TRACK 01 AUDIO
TITLE "Part Two. No.14 Introitus (Chorus) - Moses and the children of Israel"
PERFORMER "John Eliot Gardiner (Monteverdi Choir & English Baroque Soloists)"
INDEX 00 00:00:00
INDEX 01 00:00:33
TRACK 02 AUDIO
TITLE "No.15 Duet (Sopranos 1 & 2) - The Lord is my strength"
PERFORMER "John Eliot Gardiner (Monteverdi Choir & English Baroque Soloists)"
INDEX 00 03:19:33
INDEX 01 03:20:33
TRACK 03 AUDIO
TITLE "No.16 Chorus - He is my God"
PERFORMER "John Eliot Gardiner (Monteverdi Choir & English Baroque Soloists)"
INDEX 00 07:39:33
INDEX 01 07:40:33
TRACK 04 AUDIO
TITLE "No.17 Duet (Bass 1 & 2) - The Lord is a man of war"
PERFORMER "John Eliot Gardiner (Monteverdi Choir & English Baroque Soloists)"
INDEX 00 10:43:33
INDEX 01 10:47:33
TRACK 05 AUDIO
TITLE "No.18 Chorus - The depths have covered them"
PERFORMER "John Eliot Gardiner (Monteverdi Choir & English Baroque Soloists)"
INDEX 00 16:25:33
INDEX 01 16:26:33
TRACK 06 AUDIO
TITLE "No.19 Chorus - Thy right hand, O Lord"
PERFORMER "John Eliot Gardiner (Monteverdi Choir & English Baroque Soloists)"
INDEX 00 18:32:33
INDEX 01 18:33:33
TRACK 07 AUDIO
TITLE "No.20 Chorus - And with the blast of Thy nostrils"
PERFORMER "John Eliot Gardiner (Monteverdi Choir & English Baroque Soloists)"
INDEX 01 22:07:33
TRACK 08 AUDIO
TITLE "No.20 Air (Tenor) - The enemy said: I will pursue"
PERFORMER "John Eliot Gardiner (Monteverdi Choir & English Baroque Soloists)"
INDEX 00 24:54:33
INDEX 01 24:56:33
TRACK 09 AUDIO
TITLE "No.20 Air (Soprano) - Thou didst blow with the wind"
PERFORMER "John Eliot Gardiner (Monteverdi Choir & English Baroque Soloists)"
INDEX 01 27:15:33
TRACK 10 AUDIO
TITLE "No.23 Chorus - Who is like unto Thee"
PERFORMER "John Eliot Gardiner (Monteverdi Choir & English Baroque Soloists)"
INDEX 00 29:23:33
INDEX 01 29:24:33
TRACK 11 AUDIO
TITLE "No.24 Duet (Alto & Tenor) - Thou in thy mercy"
PERFORMER "John Eliot Gardiner (Monteverdi Choir & English Baroque Soloists)"
INDEX 00 31:49:33
INDEX 01 31:50:33
TRACK 12 AUDIO
TITLE "No.25 Chorus - The people shall hear and be afraid"
PERFORMER "John Eliot Gardiner (Monteverdi Choir & English Baroque Soloists)"
INDEX 00 36:21:33
INDEX 01 36:22:33
TRACK 13 AUDIO
TITLE "No.20 Air (Alto) - Thous shalt bring them in"
PERFORMER "John Eliot Gardiner (Monteverdi Choir & English Baroque Soloists)"
INDEX 01 43:59:33
TRACK 14 AUDIO
TITLE "No.27a Chorus - The Lord shall reign/No.28 Rec (T)/No.27b Chorus/No.29 Rec (T..."
PERFORMER "John Eliot Gardiner (Monteverdi Choir & English Baroque Soloists)"
INDEX 00 47:48:33
INDEX 01 47:50:33
TRACK 15 AUDIO
TITLE "Coronation Anthems: Zadok the Priest"
PERFORMER "John Eliot Gardiner (Monteverdi Choir & English Baroque Soloists)"
INDEX 00 52:55:33
INDEX 01 53:04:33
TRACK 16 AUDIO
TITLE "Coronation Anthems: The King shall rejoice"
PERFORMER "John Eliot Gardiner (Monteverdi Choir & English Baroque Soloists)"
INDEX 00 58:49:33
INDEX 01 58:53:33

34. Сергей Федорович (sergfv)   (15 Ноябрь 16 22:13)
Thanks for the CUE.

29. Wilhelm Fuchs (wilhelmuchs)   (15 Ноябрь 16 16:31)
Треклист
CD1
1.Overture [1:56]
Part 1
2.No.1 Recitative (Tenor):"Now there arose a new King" - No.2 Chorus: "And the children of Israel" [3:51]
3.No.3 Recitative (Tenor):"Then sent He Moses" - No.4 Chorus: "They loathed to drink" [2:30]
4.No.5 Air (Alto): "Their land brought forth frogs" [2:14]
5.No.6 Chorus: "He spake the word" [2:03]
6.No.7 Chorus: "He gave them hailstones" [2:02]
7.No.8 Chorus: "He sent a thick darkness" [2:43]
8.No.9 Chorus: "He smote all the first-born" [2:18]
9.No.10 Chorus: "But as for his people" [4:01]
10.No.11 Chorus: "Egypt was glad when they departed" [3:02]
11.No.12 Chorus: "He rebuked the Red Sea" [2:59]
12.No.13 Chorus: "And Israel saw that great work" [3:53]
CD2
Part 2
1.No.14 Introitus (Chorus): "Moses and the children of Israel [3:18]
2.No.15 Duet (Sopranos I & II): "The Lord is my strength" [4:19]
3.No.16 Chorus: "He is my God" [3:02]
4.No.17 Duet (Bass I & II): "The Lord is a man of war" [5:37]
5.No.18 Chorus: "The depths have covered them" [2:05]
6.No.19 Chorus: "Thy right hand, o Lord" [3:33]
7.No.20 Chorus: "And with the blast of thy nostrils" [2:45]
8.No.21 Air (Tenor): "The enemy said: I will pursue" [2:18]
9.No.22 Air (Soprano): "Thou didst blow with the wind" [2:06]
10.No.23 Chorus: "Who is like unto thee" [2:24]
11.No.24 Duet (Alto & Tenor): "Thou in thy mercy" [4:31]
12.No.25 Chorus: “The people shall hear and be afraid" [7:36]
13.No.26 Air (Alto): "Thou shalt bring them" [3:48]
14.No.27a Chorus:"The Lord shall reign" - No.28 Recitative (Tenor):"For the horse" - No.27b Chorus - No.29 Recitative (Tenor):"And Miriam" - No.30 Chorus: "Sing ye to the Lord" [5:03]
15.Zadok the Priest (Coronation Anthem No.1, HWV 258) [5:44]
16.The King Shall Rejoice (Coronation Anthem No.3, HWV 260) [10:30]

30. Michael Orlov (CaterinaSforza)   (15 Ноябрь 16 16:51)
Это Гардинера Израиль. И что это за два больших flac без куе?

Ребят, давайте бороться за чистоту релизов? Только хорошие рипы, а если кто-то не хочет выкладывать логи по каким-то причинам (и мы эти причины прекрасно знаем), то пусть просто говорит, что они есть и в полном порядке. Для успокоения пользователей.

Хорошо, кто-то любит mp3, Например, для телефонов, смартфонов, планшетов. Но пусть это будет всегда 320 kbit/sec. Если нет достойного рипа - просто не выкладывай. Исключение - запись по трансляции. Там можно и 256 даже.

У меня масса рипов, в которых в логах одна ошибочка - Defeat audio cache стоит No всесто Yes или Make use of C2 pointers стоит Yes вместо No. И я НИГДЕ уже их не выкладываю. Более того, не слушаю сам. Для меня это уже не comme il faut. :D
Они просто лежат на диске до того времени, пока не найдётся правильный рип.

31. Wilhelm Fuchs (wilhelmuchs)   (15 Ноябрь 16 17:07)
Read: comment 27, 28

32. Michael Orlov (CaterinaSforza)   (15 Ноябрь 16 17:15)
This is Israel In Egypt - John Eliot Gardiner (Monteverdi Choir & English Baroque Soloists), not TAVERNER CHOIR&PLAYERS Andrew Parrott :)

33. Wilhelm Fuchs (wilhelmuchs)   (15 Ноябрь 16 17:37)
youare a genius :https://rutracker.org/forum/viewtopic.php?t=2058475
good luck for.. :D

36. Родион Лирник (Лирник)   (16 Ноябрь 16 20:02)
Thanks for the CUE. :)

35. femm femm (femm)   (16 Ноябрь 16 12:57)
спасибо

Добавлять комментарии могут только зарегистрированные пользователи.
[ Регистрация | Вход ]

Аудио/видеозаписи и литература предоставляются исключительно для ознакомления. После ознакомления они должны быть удалены, иначе, вероятно, Вами будет нарушен закон "об авторском праве и смежных правах".
Помощь тяжело больным детям. Подробнее.
Форма входа








ПОГРУЖЕНИЕ В КЛАССИКУ. Здесь живет бесплатная классическая музыка в mp3 и других форматах.