Погружение в классику
Погружение в классику
RSS
аудио
Меню сайта
Поиск
по заголовкам
по всему сайту
поиск от Google
поиск от Яndex

Из нашего архива
Софроницкий играет Моцарта и Бетховена [аудио]
Бобби Макферрин (Bobby McFerrin), Paper Music (ape) [аудио]
Святослав Рихтер, The Master, том 1 - Бетховен (ape) [аудио]
Календарь новостей
«  Октябрь 2015  »
ПнВтСрЧтПтСбВс
   1234
567891011
12131415161718
19202122232425
262728293031

Приветствуем Вас, Гость.
Текущая дата: Воскресенье, 11 Декабрь 16, 03:12
Главная страница » 2015 » Октябрь » 2 » Галеви - Иудейка (Жидовка) | Halevy - La juive (Rhodes, Poncet; Marcel Couraud) 1960 highlighs
Галеви - Иудейка (Жидовка) | Halevy - La juive (Rhodes, Poncet; Marcel Couraud) 1960 highlighs

Теги: Jane Rhodes, Poncet, La Juive, Halevy

Jacques François Halévy
La juive


Le Cardinal de Brogni - Gérard Serkoyan (basse)
La Princesse Eudoxie - Denise Monteil (soprano)
Le Juif Eléazar - Tony Poncet (ténor)
Rachel - Jane Rhodes (soprano)
Léopold, Prince de L’Empire - Robert Andreozzi (ténor)
Ruggiero - Bernard Demigny (baryton)
Albert - Bernard Demigny (baryton)
Un Homme du people - Bernard Demigny (baryton)

Choeur d’Opéra
Orchestre de l’Opéra de Karlsruhe
Direction - Marcel Couraud


© EL HUMILDE CAMPESINO
Категория: аудио | Просмотров: 813 | Добавил(а): skip
Важно: что делать, если ссылка на скачивание не работает.
Понравился материал?
Ссылка
html (для сайта, блога, ...)
BB (для форума)
Комментарии
Всего комментариев: 6
1. Игорь (skip)   (02 Октябрь 15 08:25)
Acte 1
8. Ouverture (extrait)
9. Introduction: “En ce jour de fête publique”
(Hommes du Peuple, Ruggiero, Rachel, Brogni, Eléazar, le Choeur)
10. Cavatine: “Si la rigueur et la vengeance”
(Brogni, Rachel, Eléazar, Ruggiero, le Peuple)
11. Choeur des buveurs – Finale: “Ah! Grand Dieu! que vois-je!
(Ruggiero, Eléazar, Léopold, Albert, Rachel, Choeurs)

Acte 2
12. Prière: “O Dieu, Dieu de nos pères”
(Eléazar, Rachel, Choeurs)
13. Trio: “Tu possèdes, dit on…”
(Eudoxie, Eléazar, Léopold)
14. Romance: “Il va venire”
(Rachel)

Acte 3
15. Finale: “Preux chevalier,fléchissez le genou“
(Eudoxie, Rachel, Eléazar, Ruggiero, Brogni, Choeurs)
16. Malédiction: “De nos temples pour toi que se ferme l’enceinte”
(Brogni, Eudoxie, Rachel, Eléazar, Léopold, Ruggiero)

Acte 4
17. Duo: “Ah! que ma voix plaintive”
(Eudoxie, Rachel)
18. Scène: “Ainsi tu veux mourir?”
(Brogni, Eléazar)
19. Air: “Rachel, quand du Seigneur… Dieu m’éclaire“
(Eléazar, Choeurs)

Acte 5
1. Finale: “Il est temps!”
(Ruggiero, Eléazar, Rachel, Brogni, Choeurs)

2. Ewa Kwiatkowska (suslix)   (02 Октябрь 15 10:07)
Спасибо! rose

3. lzp (lzp3881)   (02 Октябрь 15 14:48)
REM DATE 1960
PERFORMER "Tony Poncet Jane Rhodes Gerard Serkoyan Denise Monteil Robert Andreozzi Marcel Couraud"
TITLE "La juive"
FILE "La_juive-Poncet-Rhodes-Serkoyan-Monteil-Couraud-Karlsruhe-1960-1.flac" WAVE
TRACK 01 AUDIO
TITLE "Ouverture (extrait)"
INDEX 01 00:00:00
TRACK 02 AUDIO
TITLE "Acte 1 Introduction: En ce jour de fete publique"
INDEX 01 02:02:00
TRACK 03 AUDIO
TITLE "Acte 1 Cavatine: Si la rigueur et la vengeance"
INDEX 01 06:29:00
TRACK 04 AUDIO
TITLE "Acte 1 Choeur des buveurs - Finale: Ah! Grand Dieu! que vois-je!"
INDEX 01 11:44:00
TRACK 05 AUDIO
TITLE "Acte 2 Priere: O Dieu, Dieu de nos peres"
INDEX 01 16:24:00
TRACK 06 AUDIO
TITLE "Acte 2 Trio: Tu possedes, dit on..."
INDEX 01 22:39:00
FILE "La_juive-Poncet-Rhodes-Serkoyan-Monteil-Couraud-Karlsruhe-1960-2.flac" WAVE
TRACK 11 AUDIO
TITLE "Acte 2 Romance: Il va venire! Et d'effroi"
INDEX 01 00:00:00
TRACK 12 AUDIO
TITLE "Acte 3 Finale: Preux chevalier, flechissez le genou"
INDEX 01 05:22:00
TRACK 13 AUDIO
TITLE "Acte 4 Malediction: De nos temples pour toi que se ferme l'enceinte"
INDEX 01 08:01:50
TRACK 14 AUDIO
TITLE "Acte 4 Duo: Ah! que ma voix plaintive"
INDEX 01 10:06:00
TRACK 15 AUDIO
TITLE "Acte 4 Scene: Ainsi tu veux mourir?"
INDEX 01 14:25:50
TRACK 16 AUDIO
TITLE "Acte 4 Air: Rachel, quand du Seigneur... Dieu m'eclaire"
INDEX 01 18:00:50
FILE "La_juive-Poncet-Rhodes-Serkoyan-Monteil-Couraud-Karlsruhe-1960-3.flac" WAVE
TRACK 21 AUDIO
TITLE "Acte 5 Finale: Il est temps!"
INDEX 01 00:00:00

6. Игорь (skip)   (02 Октябрь 15 16:51)
Большое спасибо за куй. Отдельные фрагменты теперь можно будет послушать отдельно. Тем более, что исполнение наисильнейшее.

4. Александр Чиженко (chizhen)   (02 Октябрь 15 15:43)
А чья живопмсь? Эффектная модель!

5. Игорь (skip)   (02 Октябрь 15 16:43)
чья живопмсь?

https://it.wikipedia.org/wiki/Charles_Landelle

Добавлять комментарии могут только зарегистрированные пользователи.
[ Регистрация | Вход ]

Аудио/видеозаписи и литература предоставляются исключительно для ознакомления. После ознакомления они должны быть удалены, иначе, вероятно, Вами будет нарушен закон "об авторском праве и смежных правах".
Помощь тяжело больным детям. Подробнее.
Форма входа








ПОГРУЖЕНИЕ В КЛАССИКУ. Здесь живет бесплатная классическая музыка в mp3 и других форматах.