Погружение в классику
Погружение в классику
RSS
аудио
Меню сайта
Поиск
по заголовкам
по всему сайту
поиск от Google

Из нашего архива
В.А.Моцарт – Оперные Увертюры. [аудио]
Елизавета ШУМСКАЯ. арии из опер. А. Мелик-Пашаев [аудио]
Дирижирует Артуро Тосканини. Симфонии. Оркестровые произведения. (mp3 / 224 kbps) [аудио]
Календарь новостей
«  Август 2015  »
ПнВтСрЧтПтСбВс
     12
3456789
10111213141516
17181920212223
24252627282930
31

Приветствуем Вас, Гость.
Текущая дата: Вторник, 20 Февраля 18, 05:02
Главная страница » 2015 » Август » 29 » Доницетти - Лючия ди Ламмермур (фрагменты) | Donizetti - Lucia di Lammermoor (Georges Sebastian) 1960 (LP)
Доницетти - Лючия ди Ламмермур (фрагменты) | Donizetti - Lucia di Lammermoor (Georges Sebastian) 1960 (LP)

Теги: Лючия ди Ламмермур, Меспле, Ванзо, Lucia di Lammermoor, Donizetti

Gaetano Donizetti
Lucia di Lammermoor


Lucie - Mady Mesple
Henri - Robert Massard
Edgard - Alain Vanzo
Arthur - Remy Corazza
Raimond - Gerard Serkoyan

Conductor Georges Sebastian


ИСТОЧНИК afinatusoidos
РЕЛИЗЕР EL HUMILDE CAMPESINO
Категория: аудио | Просмотров: 1017 | Добавил(а): skip
Важно: что делать, если ссылка на скачивание не работает.
Понравился материал?
Ссылка
html (для сайта, блога, ...)
BB (для форума)
Комментарии
Всего комментариев: 10
1. alexey semlyanoy (terrestro)   (29 Августа 15 21:20)
Интересно! И прежде всего из-за Ванзо! Мепле - птичий голосок, там всё будет спето, но чувств будет очень мало.... А вот Ванзо - это интересно!!! aiwan-hi

6. Yuri (Сузуки)   (30 Августа 15 17:26)
Опер я практически не слушаю и потому не могу судить, а вот в цикле Берлиоза "Летние ночи" упрекнуть Мепле не в чем, а похвалить есть за что. Одно из наилучших исполнений.

8. alexey semlyanoy (terrestro)   (30 Августа 15 21:34)
Юра! Записей "Летних ночей" у меня, как большого любителя Берлиоза, более десятка... Одна из лучших - с Геддой. Очень хороша Де Лос Анхелос. Недурственно поют Норман, Бейкер.

2. lzp (lzp3881)   (29 Августа 15 23:44)
REM DATE 1960
PERFORMER "Mady Mesple Alain Vanzo Robert Massard Remy Corazza Gerard Serkoyan Georges Sebastian"
TITLE "Lucie de Lammermoor"
FILE "Lucie-Mesple-Vanzo-Massard-Corazza-Serkoyan-Sebastian-1.flac" WAVE
TRACK 01 AUDIO
TITLE "Act I"
INDEX 01 00:00:00
TRACK 02 AUDIO
TITLE "D'un amour qui me brave - Cruda, funesta smania"
INDEX 01 01:21:00
TRACK 03 AUDIO
TITLE "Regnava nel silenzio"
INDEX 01 03:24:00
TRACK 04 AUDIO
TITLE "Vers toi toujours s'envolera mon reve d'esperance! - Verranno a te sull'aure"
INDEX 01 10:55:50
TRACK 05 AUDIO
TITLE "Act II Se tradirmi tu potrai"
INDEX 01 14:58:50
TRACK 06 AUDIO
TITLE "Voici ton epoux. Cruelle, veux-tu me perdre? O tourment! - Ecco il tuo sposo"
INDEX 01 16:54:50
TRACK 07 AUDIO
TITLE "Chi mi frena in tal momento"
INDEX 01 18:55:00
FILE "Lucie-Mesple-Vanzo-Massard-Corazza-Serkoyan-Sebastian-2.flac" WAVE
TRACK 11 AUDIO
TITLE "Act III Mon nom s'est fait entendre au milieu de vos chants. C'etait sa voix - Il dolce suono"
INDEX 01 00:00:00
TRACK 12 AUDIO
TITLE "Je vais quitter la terre, rejoindre la lumiere - Spargi d'amaro pianto"
INDEX 01 11:07:75
TRACK 13 AUDIO
TITLE "Fra poco a me ricovero dara negletto avello"
INDEX 01 14:34:50
TRACK 14 AUDIO
TITLE "Tu che a Dio spiegasti l'ali o bell'alma innamorata"
INDEX 01 17:34:50

4. Игорь (skip)   (30 Августа 15 12:46)
Спасибо! :D

3. (Italian)   (30 Августа 15 11:39)
Не согласен по поводу Мепле. Дело в том что "чувства" в русской и французской традиции - это очень разные вещи. Со стороны России видится высокомерное занудство, а со стороны Франции дикая несдержанности. Подобное понимание эмоциональной сферы можно и нужно рассматривать в широком культурологическом контексте. Это и не только искусства касается.
А и певица Мепле одна из лучших во Франции. К этому нужно относится очень бережно. У них такого уровня певцов немного. А Лючия ее, уверен, изящная фарфоровая статуэтка. Так ведь это и прекрасно. Французская трактовка бельканто, что и должно быть. А остальные "безобразия" к чему? Их и в современных трактовках предостаточно. Да и сама она вон какая симпампулька!

7. alexey semlyanoy (terrestro)   (30 Августа 15 21:28)
Я полагаю, что о таких тонких вещах, как стилистика, менталитет и особенности восприятия я начал задумываться задолго до того, как Вы появились на свет - лет так с 7-и, когда начал терзать скрипку и уши своих родителей. Так что спасибо за лекцию о "чувствах" и о проблематике культурологии!..
С творчеством Мепле я ознакомился впервые в 1966 году, у одного филофониста. Как раз тогда, после смерти Мадо Робен, она надела корону Колоратуры Франции, если так можно сказать. Позже, уже отслужив в армии, году в 1971, я уже основательно ознакомился с большим альбомом оперных арий (преимущественно французского репертуара), выпущенных на двойнике EMI. Ещё позже я уже сам стал обладателем монтажей оперетт (прежде всего моего любимого Оффенбаха): Мепле очень активно писалась тогда в оперетте. Есть и камерные программы с ней, хотя, признаюсь, я французскую лирику не могу причислить к горячо мною любимой. Творческую амплитуду этой певицы знаю очень хорошо. Так что ожидать от неё какого-то Une décision inattendue не могу. Это невозможно.
Она не так много пела итальянского репертуара. Лючия, несомненно, не самое яркое её достижение.

5. Игорь (skip)   (30 Августа 15 12:47)
Italian appl

9. (Italian)   (30 Августа 15 23:58)
И во многих странах вы были, что бы судить о национальных характерах (тем более во времена царя Гороха), и многими иностранными языками владеете, и насколько теоретически непосредственно в этом вопросе "подкованы"?
Должен признаться что всегда с интересом читаю ваши многочисленные комментарии по сугубо музыкальным вопросам, хоть иногда и не согласен с ними. Но чаще соглашаюсь.
Наконец, что значит раньше - позже? В том-то и дело что люди развиваются с определенного возраста, как известно, в обратном направлении (склероз, глухота, слепота, нервы, ухудшение моторики, реактивных способностей мозга и т.п.). Жизнь. Я говорю об одном (понимании)-вы о другом (давно "знакомы" с певицей).
Не переживайте. Вы мне симпатичны со своей страстью к музыке и гневливостью, в частности, от нее же (а также и от всей многотрудной жизни "с царегороховых времен") и происходящей.

10. alexey semlyanoy (terrestro)   (01 Сентября 15 16:20)
Italian
:D

Добавлять комментарии могут только зарегистрированные пользователи.
[ Регистрация | Вход ]

Аудио/видеозаписи и литература предоставляются исключительно для ознакомления. После ознакомления они должны быть удалены, иначе, вероятно, Вами будет нарушен закон "об авторском праве и смежных правах".
Помощь тяжело больным детям. Подробнее.
Форма входа








ПОГРУЖЕНИЕ В КЛАССИКУ. Здесь живет бесплатная классическая музыка в mp3 и других форматах.