Погружение в классику
Погружение в классику
RSS
аудио
Меню сайта
Поиск
по заголовкам
по всему сайту
поиск от Google

Из нашего архива
Антонио Вивальди. Концерты для фагота и струнного оркестра. Клаус Тунеманн / Antonio Vivaldi. I Musici. Klaus Thunemann [аудио]
Ванда Ландовска (клавесин) играет сонаты Доменико Скарлатти (flac) [аудио]
Р.Шуман – Крейслериана. И.Брамс - Соната №2. Элен Гримо (Франция) [аудио]
Календарь новостей
«  Август 2015  »
ПнВтСрЧтПтСбВс
     12
3456789
10111213141516
17181920212223
24252627282930
31

Приветствуем Вас, Гость.
Текущая дата: Понедельник, 26 Февраля 18, 00:38
Главная страница » 2015 » Август » 24 » Пуччини - Тоска | Giacomo Puccini - Tosca (Arturo Basile) 1955 LP
Пуччини - Тоска | Giacomo Puccini - Tosca (Arturo Basile) 1955 LP

Теги: тоска, Tosca, Arturo Basile, Frazzoni, Пуччини

Giacomo Puccini
Tosca


Floria Tosca - Gigliola Frazzoni
ФЛОРИЯ ТОСКА - ДЖИЛЬОЛА ФРАЦЦОНИ
Mario Cavaradossi - Ferruccio Tagliavini
КАВРАДОССИ - ФЕРРУЧЧО ТЕЛЬЯВИНИ
Il barone Scarpia - Giangiacomo Guelfi
СКАРПИА - ДЖАНДЖАКОМО ГУЭЛЬФИ
Il Sagristano - Alfredo Mariotti
Cesare Angelotti - Antonio Zerbini
Spoletta - Vittorio Pandano
Sciarrone - Alberto Albertini
Un pastore - Edy (Editta) Amedeo
Un carceriere - Alberto Albertini

Orchestra & Chorus RAI Torino
Conductor Arturo Basile


ИСТОЧНИК themusicparlour



Категория: аудио | Просмотров: 1058 | Добавил(а): skip
Важно: что делать, если ссылка на скачивание не работает.
Понравился материал?
Ссылка
html (для сайта, блога, ...)
BB (для форума)
Комментарии
Всего комментариев: 29
1. андрей антонов (antonovka007)   (24 Августа 15 18:47)
Ура!Наконец-то выложили эту гениальную запись!!!Огромное спасибо!!!

5. alexey semlyanoy (terrestro)   (24 Августа 15 20:26)
А кто в этой записи Вас восхищает? Или, если шире - ЧТО ВОСХИЩАЕТ?

8. Жечо Христов (Скарпиа)   (25 Августа 15 07:30)
Самое главное - Скарпия поёт уникальны баритон Джан-Джакомо Гуелфи !!!

Артуро Базиле дирижирует в настоящий италианский маниер ! Маниер,которы сейчас трудно может услышится.Сейчас дирижеры исчут симфоническое звучение в оперной музыке.

11. alexey semlyanoy (terrestro)   (25 Августа 15 08:01)
К комменту № 8.
"...в настоящий италинский маниер"...
Очень "тонкое" замечание! Значит, Тосканини не был великим дирижёром, потому что он не дирижировал в "италианский маниер", как раз начал "симфоническое звучение в оперной музыке."
Вам, Жечо, лекции бы читать для дирижёров, дабы их в нужное русло направлять! А то вот этого не знали и все последующие за Тосканини итальянские дирижёры, начиная с Серафина и до Аббадо включительно "искали симфоническое звучание", т.е., если коротко - зря свои жизни прожили!!! Уж Вы-то с Вашими познаниями поставили бы их на место!!!
А ничего, что "уникальны баритон Джан-Джакомо Гуелфи" не имел ни красоты голоса, ни legato, ни низов, наконец?! Сила верхнего регистра голоса - это главное?

14. Игорь (skip)   (25 Августа 15 10:59)
<Самое главное - Скарпия поёт уникальны баритон Джан-Джакомо Гуелфи !!!

Из-за него оставил себе эту запись.

15. alexey semlyanoy (terrestro)   (25 Августа 15 14:33)
Рекомендую Вам с этим же баритоном-дуболомом запись ТОСКИ из Токио. Там он поёт хоть и в прежнем ключе, но визуально это совпадает, а потому и впечатляет. Примитивный, в общем, образ страшного костолома, прущего напролом, но, повторяю, впечатляющий. Я, знаете, лучшего Скарпья, чем Николае Херля, так и не услыхал и не увидал: тонкий, галантный, очень властный царедворец с мощнейшей харизмой и блистательным вокалом. А уж сколькИх Скарпья я на своём веку услыхал и увидал - и не сосчитать!..

16. Игорь (skip)   (25 Августа 15 14:48)
А мне грешным делом :D всех больше Гобби нравится. Херлю поищу, не слыхал.

17. alexey semlyanoy (terrestro)   (25 Августа 15 14:51)
Гобби - он великолепен! Просто у него с верхом в Te Deum (хотя там всего-то ФА), не ладится...Ну и не хватает мне лично кантилены... А так они оба: и Херля, и Гобби невероятно хороши!

18. Жечо Христов (Скарпиа)   (25 Августа 15 18:34)
bravo bravo bravo bravo bravo bravo bravo bravo bravo bravo bravo bravo

2. Игорь (skip)   (24 Августа 15 19:17)
:D

3. андрей антонов (antonovka007)   (24 Августа 15 19:50)
А нет ли у вас комплекта Баттерфляй-Петрелла,Тальявини,Таддеи?

4. Игорь (skip)   (24 Августа 15 20:23)
У меня нет, но есть на сайте -- "Petrella, Butterfly"

6. андрей антонов (antonovka007)   (24 Августа 15 21:15)
Дайте,пожалуйста,ссылочку

7. Игорь (skip)   (25 Августа 15 06:46)
Madama Butterfly (Clara Petrella, Tagliavini) RAI 1953
https://yadi.sk/mail/?hash=w2M5nVmM6izV5qJHrpGFabAK9QXLD735nASzJsXwwY4%3D&uid=223513320
там mp3 наверно, размер небольшой.

9. Александр (alexandr_p)   (25 Августа 15 07:45)
Спасибо!
Да mp3 128. А с диска 1991. Есть и 2007.
http://www.allmusic.com/album/puccini-madama-butterfly-mw0001946125

10. андрей антонов (antonovka007)   (25 Августа 15 07:49)
Спасибише!!! appl appl appl :D

12. lzp (lzp3881)   (25 Августа 15 09:42)
REM DATE 1955
PERFORMER "Gigliola Frazzoni Ferruccio Tagliavini Giangiacomo Guelfi Arturo Basile RAI Torino"
TITLE "Tosca"
FILE "Tosca-Frazzoni-Tagliavini-Guelfi-Basile-Torino-1955-1.flac" WAVE
TRACK 01 AUDIO
TITLE "Act I - Ah! Finalmente!"
INDEX 01 00:00:00
TRACK 02 AUDIO
TITLE "E sempre lava!"
INDEX 01 02:06:00
TRACK 03 AUDIO
TITLE "Sante ampolle! Il suo ritratto!"
INDEX 01 04:26:25
TRACK 04 AUDIO
TITLE "Dammi i colori... Recondita armonia"
INDEX 01 05:36:27
TRACK 05 AUDIO
TITLE "Gente lа dentro!"
INDEX 01 10:05:50
TRACK 06 AUDIO
TITLE "Mario! Mario! Mario!.. Son qui"
INDEX 01 11:14:30
TRACK 07 AUDIO
TITLE "Ora stammi a sentir"
INDEX 01 13:12:40
TRACK 08 AUDIO
TITLE "Or lasciami al lavoro"
INDEX 01 16:29:25
TRACK 09 AUDIO
TITLE "Ah, quegli occhi... Quale occhio al mondo"
INDEX 01 18:13:40
TRACK 10 AUDIO
TITLE "Mia gelosa!"
INDEX 01 19:48:50
TRACK 11 AUDIO
TITLE "E buona la mia Tosca"
INDEX 01 23:47:00
TRACK 12 AUDIO
TITLE "Sommo giubilo, Eccelenza!"
INDEX 01 27:37:00
TRACK 13 AUDIO
TITLE "Un tal baccano in chiesa!"
INDEX 01 29:28:50
TRACK 14 AUDIO
TITLE "Tosca? Che non mi veda"
INDEX 01 33:51:50
TRACK 15 AUDIO
TITLE "Ed io venivo a lui tutta dogliosa"
INDEX 01 36:49:25
TRACK 16 AUDIO
TITLE "Tre sbirri, una carrozza"
INDEX 01 40:48:40
FILE "Tosca-Frazzoni-Tagliavini-Guelfi-Basile-Torino-1955-2.flac" WAVE
TRACK 21 AUDIO
TITLE "Act II - Tosca e un buon falco!"
INDEX 01 00:00:00
TRACK 22 AUDIO
TITLE "Ha piu forte sapore"
INDEX 01 03:33:10
TRACK 23 AUDIO
TITLE "O galantuomo, come ando la caccia?"
INDEX 01 05:05:25
TRACK 24 AUDIO
TITLE "Meno male!"
INDEX 01 06:11:10
TRACK 25 AUDIO
TITLE "Ov'e Angelotti?"
INDEX 01 08:45:85
TRACK 26 AUDIO
TITLE "Ed or fra noi parliam da buoni amici"
INDEX 01 11:17:25
TRACK 27 AUDIO
TITLE "Sciarrone, che dice il Cavalier?"
INDEX 01 12:42:30
TRACK 28 AUDIO
TITLE "Orsu, Tosca parlate"
INDEX 01 15:32:50
TRACK 29 AUDIO
TITLE "Floria!.. Amore"
INDEX 01 19:18:50
TRACK 30 AUDIO
TITLE "Salvatelo!.. lo?.. Voi!"
INDEX 01 22:12:00
TRACK 31 AUDIO
TITLE "Se la giurata fede debbo tradir... Giа mi struggea I'amor"
INDEX 01 24:52:50
TRACK 32 AUDIO
TITLE "Come tu mi odi!"
INDEX 01 27:37:10
TRACK 33 AUDIO
TITLE "Vissi d'arte"
INDEX 01 29:07:00
TRACK 34 AUDIO
TITLE "Vedi, le man giunte io stendo a te!"
INDEX 01 32:03:30
TRACK 35 AUDIO
TITLE "Lo tenni la promessa"
INDEX 01 35:36:37
TRACK 36 AUDIO
TITLE "Tosca, finalmente mia!"
INDEX 01 37:50:00
TRACK 37 AUDIO
TITLE "Or gli perdono!"
INDEX 01 39:24:00
FILE "Tosca-Frazzoni-Tagliavini-Guelfi-Basile-Torino-1955-3.flac" WAVE
TRACK 38 AUDIO
TITLE "Act III - Io de' sospiri"
INDEX 01 00:00:00
TRACK 39 AUDIO
TITLE "(Orchestra)"
INDEX 01 05:30:50
TRACK 40 AUDIO
TITLE "Mario Cavaradossi? A voi"
INDEX 01 06:49:00
TRACK 41 AUDIO
TITLE "E lucevan le stelle"
INDEX 01 09:37:50
TRACK 42 AUDIO
TITLE "Ah! Franchigia a Floria Tosca"
INDEX 01 12:42:00
TRACK 43 AUDIO
TITLE "O dolci mani mansuete e pure"
INDEX 01 15:30:10
TRACK 44 AUDIO
TITLE "Senti, I'ora e vicina"
INDEX 01 17:07:00
TRACK 45 AUDIO
TITLE "Amaro sol per te m'era il morire"
INDEX 01 18:50:00
TRACK 46 AUDIO
TITLE "E non giungono"
INDEX 01 20:58:20
TRACK 47 AUDIO
TITLE "Come'e lunga l'attesa!"
INDEX 01 23:35:75
TRACK 48 AUDIO
TITLE "Presto! Su, Mario!"
INDEX 01 25:56:00

13. Игорь (skip)   (25 Августа 15 10:50)
Спасибо, любезнейший lzp, за ценный файлик :D

Доп. инфо:
переименовать аудио треки последовательно:
Tosca-Frazzoni-Tagliavini-Guelfi-Basile-Torino-1955-1
Tosca-Frazzoni-Tagliavini-Guelfi-Basile-Torino-1955-2
Tosca-Frazzoni-Tagliavini-Guelfi-Basile-Torino-1955-3

19. Nadir (ipromesispos)   (25 Августа 15 20:09)
Which software are you using with that cue file?
%)

20. Taras V. (little_listener)   (25 Августа 15 21:39)
И как? Играет?

21. Игорь (skip)   (25 Августа 15 21:47)
А то :D

22. Taras V. (little_listener)   (25 Августа 15 22:32)
А порезать на треки не жалко? :)
А то у меня не играет :(

23. Taras V. (little_listener)   (25 Августа 15 22:43)
Понял, почему не играет. Я переименовал в куе файлы на "Act1.flac" и т.п. А там в конце имени пробелы. Нужно было менять на "Act1 .flac". Или в исходных файлах эти пробелы убрать.

24. Taras V. (little_listener)   (25 Августа 15 22:53)
Ещё одна странность: после 16-го трека идёт сразу 21-й. В принципе, нумерация роли не играет, но всё-таки...

25. Nadir (ipromesispos)   (27 Августа 15 17:09)
I've tried all, but with no luck. :'(
Can you, if you please and at your convenience, instruct me, or upload the cue files?
Thanks in advance. bravo

26. Taras V. (little_listener)   (27 Августа 15 20:43)
1. Create a new file [anyname].cue
2. Put the text from the comment No.12 to the new file and save it.
3. Rename the three .flac files to "Tosca-Frazzoni-Tagliavini-Guelfi-Basile-Torino-1955-1.flac" etc.
4. Try to play the .cue file again.
5. Inform us about results :)

27. Taras V. (little_listener)   (27 Августа 15 20:56)
By the way you can make three .cue files too. Cut the text from the comment No.12 to the three parts and add the header to the every .cue file

REM DATE 1955
PERFORMER "Gigliola Frazzoni Ferruccio Tagliavini Giangiacomo Guelfi Arturo Basile RAI Torino"
TITLE "Tosca" *

* Better is to change the string to:
TITLE "Tosca - Act 1"
etc.

28. Nadir (ipromesispos)   (28 Августа 15 16:28)
Yees! Works fine in Foobar2000.
Very kind of you. ;)

29. Taras V. (little_listener)   (28 Августа 15 16:39)
I'm glad :)

Добавлять комментарии могут только зарегистрированные пользователи.
[ Регистрация | Вход ]

Аудио/видеозаписи и литература предоставляются исключительно для ознакомления. После ознакомления они должны быть удалены, иначе, вероятно, Вами будет нарушен закон "об авторском праве и смежных правах".
Помощь тяжело больным детям. Подробнее.
Форма входа








ПОГРУЖЕНИЕ В КЛАССИКУ. Здесь живет бесплатная классическая музыка в mp3 и других форматах.