Погружение в классику
Погружение в классику
RSS
аудио
Меню сайта
Поиск
по заголовкам
по всему сайту
поиск от Google

Из нашего архива
Ф.Шуберт – Соната для Фортепиано Ля Минор, D 537. А.Б.Микеланджели. [аудио]
В.А. Моцарт, все концерты для ф-но с оркестром, Альфред Брендель, Невиль Марринер, CD 6-12 (ape) [аудио]
Н.Паганини – Собрание избранных произведений. Сальваторе Аккардо и др. [аудио]
Календарь новостей
«  Июнь 2015  »
ПнВтСрЧтПтСбВс
1234567
891011121314
15161718192021
22232425262728
2930

Приветствуем Вас, Гость.
Текущая дата: Вторник, 20 Февраля 18, 22:41
Главная страница » 2015 » Июнь » 24 » Йоханна Марци играет Сонаты и партиты И.С. Баха (комплект)
Йоханна Марци играет Сонаты и партиты И.С. Баха (комплект)



Татьа

Йоханна Марци играет Сонаты и партиты И.С. Баха (комплект). Формат флек. залито на народ. 

Диск 1. 

Соната №1

Адажио, Фуга, Сицилиана, Престо.

Партита №1

Алеманда, Дубль, Куранта, Дубль, Сарабанда, Дубль, Буре, Дубль.

Соната №2

Граве, Фуга, Анданте, Аллегро.

Ссылка на диск 1

http://narod.ru/disk/19239734001/Bach1.zip.html

Диск 2.

Партита №2

Алеманда, Куранта, Сарабанда, Жига, Чакона.

Соната №3

Адажио, Фуга, Ларго, Аллегро .

Партита №3.

Прелюдия, Лур, Гавот и Рондо, Менуэт 1 и 2, Буре, Жига.

Новая ссылка:

https://cloud.mail.ru/public/N1eT/xS817wwk4

Бывший материал участника (constantin)
Категория: аудио | Просмотров: 3114 | Добавил(а): татьяна
Важно: что делать, если ссылка на скачивание не работает.
Понравился материал?
Ссылка
html (для сайта, блога, ...)
BB (для форума)
Комментарии
Всего комментариев: 30
1. Сергей (nibelung)   (17 Июля 11 09:06)
Замечательно, что это выставлено отдельным постом (я писал об этой записи в комментариях). Я не силён в венгерском, неужели правильно Мерци (а не Марци)?

2. константин (constantin)   (17 Июля 11 09:28)
Тоже не силен. Доверился Озону.

3. Сергей (nibelung)   (17 Июля 11 10:42)
Не стоило. О ней вообще мало известно. Один диск на Tahra, один на Memories и вот сейчас три комплекта на Testament. Найти инфомацию о ней проблема - везде сплошной молчок.

4. константин (constantin)   (17 Июля 11 10:54)
Я не знаю, что невероятного вы в этой записи нашли. Уровень хороший. Очень хорошая запись. Прям чтоб ценность? Ну если она даже на Озоне свободно есть, то ценность обычная. Там, вобщем ничего нет. Биография на английском-доступна, думаю знаете сами и видели. Скрипачка хорошая, запись хорошая, но пищать от восторга не стал бы. Привезут Брамса-там посмотрим.

8. Сергей (nibelung)   (17 Июля 11 11:44)
Ну, до того как издали, комплект LP стоил вообще-то 2000$ на e-bay. Известен также её японский комплект, но у меня его нет. Что же касается уровня, то это индивидуально. Я считаю - гениальная. Как и Эрика Морини. Вообще люблю скрипачек 50-х....

10. Сергей (nibelung)   (17 Июля 11 11:48)
Я вот мечтаю найти с ней концерты Моцарта.

12. константин (constantin)   (17 Июля 11 12:13)
С Морини Моцарта ищите?

13. Сергей (nibelung)   (17 Июля 11 12:21)
С Морини есть кое-что. С Марци ищу.

5. константин (constantin)   (17 Июля 11 10:56)
И, кстати, на Озоне EMI.

6. константин (constantin)   (17 Июля 11 11:04)
А потом время. родилась в 24 умерла 79. Не мне вам рассказывать какие скрипачи жили и играли. Ну, куда там бедной женщине (да простят меня феминистки)... Места на Олимпе были заняты, скорее он был даже переполнен. :)

9. Сергей (nibelung)   (17 Июля 11 11:47)
Не понимаю Вас. Вы выставили, а я хвалю. Зачем выставляли тогда?

11. константин (constantin)   (17 Июля 11 12:05)
Попросили меня, скачать с того адреса который вы дали - не получилось у Татьяны. Плюс мне очень хорошая запись и отличное исполнение. Я ж согласен ;)

7. константин (constantin)   (17 Июля 11 11:16)
Это сейчас всплеск женщин солисток. Люди и студии поняли, что это красиво :) А раньше как-то не было этого. Первая женщина супер звезда скрипачка. Так это Караяновская заслуга. Сейчас на красоту ставят. И таже Янсен или Фишер, а где-то даже и Хан стали звездами. Хоть их за пояс затыкает Мидори, у которой тоже немного записей и о которой известно куда как меньше :(

19. Сергей (nibelung)   (18 Июля 11 07:10)
Так кто, по-Вашему, лучше играет - Анни-Софи Муть или Иоханна Марци?

20. константин (constantin)   (18 Июля 11 09:25)
Не могу ответить на этот вопрос. Я больше знаю Муттер. Она хорошая скрипачка. А Марци я только Баха и Шуберта слышал. Шуберт лучше чем Бах на мой вкус.

28. Сергей (nibelung)   (03 Сентября 12 15:24)
Прошёл год, и я потеплел к Муттер - за её достижения в камерной музыке...

14. Татьяна (татьяна)   (17 Июля 11 13:10)
Спасибо, Константин! Сейчас слушаю 1 диск. Пленяет необыкновенной напевностью и мягкостью, и аккордов особенно. Но, немного все в одной манере.
А что, Брамс предвидится? Интересно!

И отдельная благодарность Сергею (nibelungu) за новое имя.

Транскриптор с венгерского выдает Марци
http://web.artlebedev.ru/tools/transcriptor/hungarian/

15. константин (constantin)   (17 Июля 11 13:45)
да Брамс будет. как привезут. обычно неделя. ну вот Мидори жду уже 3(((((

16. почитатель (kubra)   (17 Июля 11 15:44)
Марци. Исправил.

Спасибо за выкладку.

18. Сергей (nibelung)   (18 Июля 11 07:08)
Напевность и мягкость - очень точная характеристика стиля Марци. Особенно уместно это в Шуберте.

17. Petuhov (korund7)   (17 Июля 11 15:51)
Спасибо!

21. alexandr (camakas)   (22 Августа 11 02:33)
Большое спасибо!

22. да нет (не_знаю)   (08 Июня 12 22:50)
Благодарю! appl appl appl appl appl

23. Шевченко Андрей Андреевич (andreich12)   (02 Сентября 12 20:45)
Хотелось бы послушать и это исполнение, но… увы: ссылка не работает. Нельзя ли её обновить? Буду очень благодарен.

24. anm (alyosha)   (03 Сентября 12 01:06)
Андрей, а вы, пожалуйста, попробуйте действовать так - http://intoclassics.net/faq/0-1#31

25. Шевченко Андрей Андреевич (andreich12)   (03 Сентября 12 02:01)
Благодарю!

26. Татьяна (татьяна)   (03 Сентября 12 08:22)
Обновила:
http://files.mail.ru/R1XPPT

27. Шевченко Андрей Андреевич (andreich12)   (03 Сентября 12 12:12)
Благодарю! bravo bravo bravo

29. Сергей Федорович (sergfv)   (24 Июня 15 10:18)
Спасибо большое за восстановление ссылки!

30. lzp (lzp3881)   (24 Июня 15 21:26)
REM DATE 1954-55
PERFORMER "Johanna Martzy"
TITLE "J.S.Bach - Sonate & Partitas pr violon seul"
FILE "Johanna Martzy - J. S. Bach - Sonate & Partitas pr violon seul (CD1).flac" WAVE
TRACK 01 AUDIO
TITLE "Sonata 1 G minor BWV 1001 - I - Adagio"
INDEX 01 00:00:00
TRACK 02 AUDIO
TITLE "Sonata 1 G minor BWV 1001 - II - Fugue"
INDEX 01 05:01:62
TRACK 03 AUDIO
TITLE "Sonata 1 G minor BWV 1001 - III - Siciliano"
INDEX 01 11:03:30
TRACK 04 AUDIO
TITLE "Sonata 1 G minor BWV 1001 - IV - Presto"
INDEX 01 15:16:60
TRACK 05 AUDIO
TITLE "Partita 1 B minor BWV 1002 - I - Allemande"
INDEX 01 18:02:01
TRACK 06 AUDIO
TITLE "Partita 1 B minor BWV 1002 - II - Double"
INDEX 01 24:20:47
TRACK 07 AUDIO
TITLE "Partita 1 B minor BWV 1002 - III - Courante"
INDEX 01 27:40:18
TRACK 08 AUDIO
TITLE "Partita 1 B minor BWV 1002 - IV - Double"
INDEX 01 31:02:39
TRACK 09 AUDIO
TITLE "Partita 1 B minor BWV 1002 - V - Sarabande"
INDEX 01 33:48:16
TRACK 10 AUDIO
TITLE "Partita 1 B minor BWV 1002 - VI - Double"
INDEX 01 36:01:49
TRACK 11 AUDIO
TITLE "Partita 1 B minor BWV 1002 - VII - Bourree"
INDEX 01 37:40:22
TRACK 12 AUDIO
TITLE "Partita 1 B minor BWV 1002 - VIII - Double"
INDEX 01 40:15:53
TRACK 13 AUDIO
TITLE "Sonata 2 A minor BWV 1003 - I - Grave"
INDEX 01 43:04:69
TRACK 14 AUDIO
TITLE "Sonata 2 A minor BWV 1003 - II - Fugue"
INDEX 01 48:13:68
TRACK 15 AUDIO
TITLE "Sonata 2 A minor BWV 1003 - III - Andante"
INDEX 01 56:56:45
TRACK 16 AUDIO
TITLE "Sonata 2 A minor BWV 1003 - IV - Allegro"
INDEX 01 61:51:22
FILE "Johanna Martzy - J. S. Bach - Sonate & Partitas pr violon seul (CD2).flac" WAVE
TRACK 21 AUDIO
TITLE "Partita 2 D minor BWV 1004 - I - Allemanda"
INDEX 01 00:00:00
TRACK 22 AUDIO
TITLE "Partita 2 D minor BWV 1004 - II - Corrente"
INDEX 01 04:23:30
TRACK 23 AUDIO
TITLE "Partita 2 D minor BWV 1004 - III - Sarabanda"
INDEX 01 07:17:02
TRACK 24 AUDIO
TITLE "Partita 2 D minor BWV 1004 - IV - Giga"
INDEX 01 10:11:31
TRACK 25 AUDIO
TITLE "Partita 2 D minor BWV 1004 - V - Ciaconna"
INDEX 01 13:30:73
TRACK 26 AUDIO
TITLE "Sonata 3 C BWV1005 - I - Adagio"
INDEX 01 28:57:27
TRACK 27 AUDIO
TITLE "Sonata 3 C BWV1005 - I - Fuga"
INDEX 01 34:42:49
TRACK 28 AUDIO
TITLE "Sonata 3 C BWV1005 - I - Largo"
INDEX 01 45:59:31
TRACK 29 AUDIO
TITLE "Sonata 3 C BWV1005 - I - Allegro assai"
INDEX 01 50:00:05
TRACK 30 AUDIO
TITLE "Partita 3 E BWV1006 - I - Preludio"
INDEX 01 54:14:63
TRACK 31 AUDIO
TITLE "Partita 3 E BWV1006 - II - Loure"
INDEX 01 58:03:30
TRACK 32 AUDIO
TITLE "Partita 3 E BWV1006 - III - Gavotte en Rondo"
INDEX 01 62:25:59
TRACK 33 AUDIO
TITLE "Partita 3 E BWV1006 - IV - Menuetto I"
INDEX 01 65:37:06
TRACK 34 AUDIO
TITLE "Partita 3 E BWV1006 - V - Menuetto II"
INDEX 01 67:26:32
TRACK 35 AUDIO
TITLE "Partita 3 E BWV1006 - VI - Bourree"
INDEX 01 70:05:17
TRACK 36 AUDIO
TITLE "Partita 3 E BWV1006 - VII - Giga"
INDEX 01 71:45:69

Добавлять комментарии могут только зарегистрированные пользователи.
[ Регистрация | Вход ]

Аудио/видеозаписи и литература предоставляются исключительно для ознакомления. После ознакомления они должны быть удалены, иначе, вероятно, Вами будет нарушен закон "об авторском праве и смежных правах".
Помощь тяжело больным детям. Подробнее.
Форма входа








ПОГРУЖЕНИЕ В КЛАССИКУ. Здесь живет бесплатная классическая музыка в mp3 и других форматах.