Погружение в классику
Погружение в классику
RSS
аудио
Меню сайта
Поиск
по заголовкам
по всему сайту
поиск от Google

Из нашего архива
Россини - Севильский цирюльник, 1976. Нью-Йорк. Силлз, Реми, Титус [видео]
Д. Букстехуде - 7 Сонат, Ор. 1 - J. Holloway, J. ter Linden, L. U. Mortensen [аудио]
Играет Леонид Коган. (2) Бах, Моцарт, Вивальди, Паганини, Брамс. [аудио]
Календарь новостей
«  Май 2015  »
ПнВтСрЧтПтСбВс
    123
45678910
11121314151617
18192021222324
25262728293031

Приветствуем Вас, Гость.
Текущая дата: Понедельник, 15 Октября 18, 16:21
Главная страница » 2015 » Май » 10 » Шуберт - песни - Генрих Рекемпер
Шуберт - песни - Генрих Рекемпер

Теги: Рекемпер, Шуберт, Rehkemper, Schubert


Шуберт - песни - Генрих Рекемпер (баритон)
Ф-но - Манфред Гурлитт и Вольдемар Ляховский

Записи 1924-28гг.

Вниманию Погруженцев предлагается 21 песня Шуберта в исполнении Генриха Рекемпера (1894-1949). Несмотря на некоторые недостатки голоса Рекемпера, на которые указывал ещё Фишер-Дискау (он находил его голос тяжеловатым, но признавал, что ему нет равных по задушевности пения),... одним словом, перед нами - величайший исполнитель Lieder. Скрывать этот факт далее больше не нахожу смысла.

APE+CUE, scans

Theodor (theodor19) обновил ссылку:

https://cloud.mail.ru/public/5WE4cApwY7na/SchubertLiederRehkemper.rar

Категория: аудио | Просмотров: 2225 | Добавил(а): nibelung
Важно: что делать, если ссылка на скачивание не работает.
Понравился материал?
Ссылка
html (для сайта, блога, ...)
BB (для форума)
Комментарии
Всего комментариев: 16
1. alexey semlyanoy (terrestro)   (09 Декабря 12 01:01)
appl appl appl
Да! Были люди!
Да какие!
Богатыри, не мы!

2. Сильвио (komponist)   (09 Декабря 12 01:10)
Душевное спасибо!
bravo respect bravo

3. Христофор (secundum)   (09 Декабря 12 02:35)
спасибо большое!

4. Виктор Зиновьев (werooozer)   (09 Декабря 12 02:38)
Ура!!! Сокровища Nibelunga - народу!

Спасибо, Сергей!!! appl appl appl

5. Kuroles (hatul)   (09 Декабря 12 14:52)
Большое спасибо!

6. Theodor (theodor19)   (09 Декабря 12 18:21)
Спасибо! appl
Потрясающая точность вхождения в вокальные образы.
В "Лесном царе" впечатляет разница в воплощении четырех персонажей - автора, отца, ребенка и Лесного царя. Грандиозно!

7. alex sidmak (sidmak)   (09 Декабря 12 20:52)
"Скрывать этот факт далее больше не нахожу смысла."

Сокрытие фактов - подсудное дело!
Меня рикошетом сегодня задело.
Надеюсь СПАСИБО! могу я сказать?
Последний стишок. Прекращаю писать.

Возрадуйтесь, люди! Вздохните свободно!
Дорогу я, мля, уступлю благородно.
И если стишок мой сочтёт кто-то пошлым,
Не ждите ответа. Всё это в прошлом.

СПАСИБО!

10. alexey semlyanoy (terrestro)   (09 Декабря 12 23:54)
appl appl appl

8. Theodor (theodor19)   (09 Декабря 12 21:56)
Раз уж пошла такая пьянка...
Добавлю в общую копилку:

Через речку быструю
Брошу валяный сапог.
Ну кому какое дело,
Куда брызги полетят...

Петь на мотив "House of the rising sun" ("Дом восходящего солнца")

9. (nixelle)   (09 Декабря 12 22:25)
Благодарю appl appl appl

11. Leandr9 (Leandr9)   (24 Декабря 12 11:59)
Спасибо большое appl appl appl

12. josif spartak (josif)   (07 Апреля 13 14:44)
Спасибо! Очень хорошо!

13. Сергей (nibelung)   (08 Августа 13 12:42)
Новая ссылка:
http://files.mail.ru/52105AFB149B4815BE0B82416FF386C2

14. george papadopoulos (gpdlt2000)   (08 Августа 13 14:39)
Thanks to Sergei for the new link!

15. lzp (lzp3881)   (11 Мая 15 00:34)
TRACK 01 AUDIO
TITLE "Sei mir gegrüsst, D 741"
INDEX 01 00:00:00
TRACK 02 AUDIO
TITLE "Auf dem Wasser zu singen, D 774"
INDEX 00 04:33:67
INDEX 01 04:37:40
TRACK 03 AUDIO
TITLE "Am Bach im Frühling, D 361"
INDEX 00 07:25:42
INDEX 01 07:29:52
TRACK 04 AUDIO
TITLE "Der Musensohn, D 764"
INDEX 00 11:09:67
INDEX 01 11:12:25
TRACK 05 AUDIO
TITLE "Das Rosenband, D 280"
INDEX 00 13:20:47
INDEX 01 13:22:70
TRACK 06 AUDIO
TITLE "Abschied, D 957, no.7"
INDEX 00 15:43:45
INDEX 01 15:47:37
TRACK 07 AUDIO
TITLE "Der Doppelgänger, D 957, no.13"
INDEX 00 18:39:30
INDEX 01 18:43:72
TRACK 08 AUDIO
TITLE "Erlkönig, D 328"
INDEX 00 22:33:37
INDEX 01 22:36:47
TRACK 09 AUDIO
TITLE "Orpheus, D 474"
INDEX 00 26:44:07
INDEX 01 26:47:45
TRACK 10 AUDIO
TITLE "Auf dem Flusse, D 911, no.7"
INDEX 00 31:42:07
INDEX 01 31:43:57
TRACK 11 AUDIO
TITLE "Der Lindenbaum, D 911, no.5"
INDEX 00 35:37:42
INDEX 01 35:40:72
TRACK 12 AUDIO
TITLE "Wohin? D 795, no.2"
INDEX 00 39:59:35
INDEX 01 40:01:60
TRACK 13 AUDIO
TITLE "Der Neugierige, D 795, no.6"
INDEX 00 42:02:55
INDEX 01 42:07:02
TRACK 14 AUDIO
TITLE "Mein! D 795, no.11"
INDEX 00 45:55:07
INDEX 01 45:57:55
TRACK 15 AUDIO
TITLE "Eifersucht und Stolz, D 795, no.17"
INDEX 00 48:23:42
INDEX 01 48:25:37
TRACK 16 AUDIO
TITLE "Die böse Farbe, D 795, no.17"
INDEX 00 50:01:72
INDEX 01 50:04:35
TRACK 17 AUDIO
TITLE "Gute Nacht, D 911, no.1"
INDEX 00 53:06:70
INDEX 01 53:09:25
TRACK 18 AUDIO
TITLE "Die Post, D 911, no.13"
INDEX 00 57:47:15
INDEX 01 57:49:67
TRACK 19 AUDIO
TITLE "Die Krähe, D 911, no.15"
INDEX 00 60:07:00
INDEX 01 60:09:02
TRACK 20 AUDIO
TITLE "Die Nebensonnen, D 911, no.23"
INDEX 00 62:17:50
INDEX 01 62:19:25
TRACK 21 AUDIO
TITLE "Der Leiermann, D 911, no.24."
INDEX 00 65:08:30
INDEX 01 65:09:37

16. Theodor (theodor19)   (11 Мая 15 10:02)
lzp, спасибо за обновлённый CUE!
Исправил, перезалил архив, ссылку заменил.

Добавлять комментарии могут только зарегистрированные пользователи.
[ Регистрация | Вход ]

Аудио/видеозаписи и литература предоставляются исключительно для ознакомления. После ознакомления они должны быть удалены, иначе, вероятно, Вами будет нарушен закон "об авторском праве и смежных правах".
Помощь тяжело больным детям. Подробнее.
Форма входа








ПОГРУЖЕНИЕ В КЛАССИКУ. Здесь живет бесплатная классическая музыка в mp3 и других форматах.