Погружение в классику
Погружение в классику
RSS
аудио
Меню сайта
Поиск
по заголовкам
по всему сайту
поиск от Google

Из нашего архива
Гленн Гульд играет Шопена Мендельсона Скрябина Прокофьева (ape) [аудио]
Фридерик Шопен, концерты для ф-но с оркестром № 1 и 2, Евгений Кисин, Дмитрий Китаенко (ape) [аудио]
Александр АГРИКОЛА (ок. 1446 - 1506) / Alexander AGRICOLA - Fortuna desperata [аудио]
Календарь новостей
«  Июнь 2014  »
ПнВтСрЧтПтСбВс
      1
2345678
9101112131415
16171819202122
23242526272829
30

Приветствуем Вас, Гость.
Текущая дата: Понедельник, 22 Октября 18, 20:38
Главная страница » 2014 » Июнь » 14 » Джузеппе Верди. НАБУККО (Навуходоносор). Джино Беки, Мария Каллас, дир. Витторио Гуи (1949)
Джузеппе Верди. НАБУККО (Навуходоносор). Джино Беки, Мария Каллас, дир. Витторио Гуи (1949)
Материал восстановлен
Бывший материал участницы Мышка Маузер (mauserj)

Набукко - Джино Беки (Gino Bechi)
Абигайль - Мария Каллас (Maria Callas)
Захария - Лучано Нерони (Luciano Neroni)
Измаил - Джино Синимберги (Gino Sinimberghi)
Фенена - Амалия Пини (Amalia Pini)
Верховный жрец - Иджинио Рикко (Iginio Riccò)
Абдалло - Лучано делла Пергола (Luciano della Pergola)
Анна - Сильвана Тенти (Silvana Tenti)

Хор и оркестр театра Сан-Карло, Неаполь
Дирижер - Витторио Гуи (Vittorio Gui)

FLAC

https://yadi.sk/d/mjqh7dc8TLnVp

Категория: аудио | Просмотров: 3938 | Добавил(а): domna
Важно: что делать, если ссылка на скачивание не работает.
Понравился материал?
Ссылка
html (для сайта, блога, ...)
BB (для форума)
Комментарии
Всего комментариев: 18
1. Admirador (iura)   (11 Марта 10 11:26)
Любопытная запись, по духу и настроению напоминает приезд пожарной команды и сопровождающий тарарам! :D Но историческая ценность несомненна!

2. Rstar (Rstar)   (11 Марта 10 15:04)
Спасибо. Чудо! appl

17. alexey semlyanoy (terrestro)   (31 Марта 18 16:15)
Чудо чего?! %)

3. olda_ku (verik1913)   (12 Марта 10 00:59)
Спасибо!!! bravo bravo bravo appl appl appl

4. Мышка Маузер (mauserj)   (11 Октября 10 00:04)
Ну-с, приступим. :)

Аудио: FLAC, 451-501 Кбит/с
Размер: 434.77 МБ (плюс 3% на восстановление)
Продолжительность: 02:06:49

Ссылки:

http://narod.ru/disk/25908355000/nbc-gui49.rar.html

http://files.mail.ru/040NTG

Пароль: intocheese (только для архива с mail.ru, на narod.ru архив без пароля)


5. Александр (Trompete)   (11 Октября 10 01:17)
Спасибо за восстановление.
А почему 49? На обложке значится Napoli 1951.

6. Анна Гасюк (leanita)   (11 Октября 10 10:46)
Ссылка на мр3
http://files.mail.ru/H472KY
Размер 171 мб.

7. Dimek Mazowiecki (Dimek)   (14 Октября 10 13:37)
Спасибо, но объясните мне, тупому, зачем паролить эти архивы?

8. Мышка Маузер (mauserj)   (14 Октября 10 13:58)
Вы, возможно, удивитесь, но диски эти надо покупать, а не скачивать. Поэтому с размещением таких материалов на файлообменниках у нас периодически борются. И первыми удаляются файлы, открытые всем ветрам, т.е. названные открытым текстом и не защищенные паролем.
А теперь объясните мне, скудоумной, неужто ввести пароль - такой непосильный труд? scratch

9. Мышка Маузер (mauserj)   (14 Октября 10 14:05)
Кстати, ставить пароль на архивы давно рекомендуется в ЧаВо, но особенно актуально это стало после недавнего шороха на мэйле, по поводу размещения там нелегального контента.

10. Dimek Mazowiecki (Dimek)   (14 Октября 10 15:15)
Спасибо, я понял, что я был не прав. Учту.

11. Мышка Маузер (mauserj)   (14 Октября 10 17:40)
Димек, я рада, что в личке мы так быстро разрешили это досадное "невежливое" недоразумение и замечательно поняли друг друга. :) Как залог будущей дружбы и мышиного миролюбия:

http://s51.radikal.ru/i131/1010/c3/cdac9ea9562d.jpg


12. Анна Петрова (Зима)   (21 Октября 10 16:52)
Большое спасибо!
appl appl appl appl

13. Александр (rialexr)   (11 Июня 11 23:59)
Спасибо большое Мышке!!!! appl appl appl appl appl appl appl appl appl appl appl appl
Только в CUE файлах неправильные названия треков. Я исправил, если кому нужно:

REM GENRE Opera
REM DATE 1951
REM DISCID 9E10DD0A
REM COMMENT "ExactAudioCopy v0.99pb5"
PERFORMER "Maria Callas"
TITLE "Verdi: Nabucco - CD1"
FILE "CD1.flac" WAVE
TRACK 01 AUDIO
TITLE "01 Sinfonia"
PERFORMER "Maria Callas"
INDEX 01 00:00:00
TRACK 02 AUDIO
TITLE "02 Act I - Gli arredi festivi"
PERFORMER "Maria Callas"
INDEX 01 07:52:69
TRACK 03 AUDIO
TITLE "03 Act I - Sperate, o figli!"
PERFORMER "Maria Callas"
INDEX 01 14:23:11
TRACK 04 AUDIO
TITLE "04 Act I - Fenena! O mia diletta!"
PERFORMER "Maria Callas"
INDEX 01 21:51:10
TRACK 05 AUDIO
TITLE "05 Act I - Lo vedeste... Fulminande"
PERFORMER "Maria Callas"
INDEX 01 30:01:29
TRACK 06 AUDIO
TITLE "06 Act I - Che tenti... Oh trema, insano!"
PERFORMER "Maria Callas"
INDEX 01 32:56:72
TRACK 07 AUDIO
TITLE "07 Act II - Ben io t'invenni, o fatal scritto"
PERFORMER "Maria Callas"
INDEX 01 41:55:60
TRACK 08 AUDIO
TITLE "08 Act II - Vieni, o Levita!"
PERFORMER "Maria Callas"
INDEX 01 52:35:59
TRACK 09 AUDIO
TITLE "09 Act II - Il Pontefice vi brama"
PERFORMER "Maria Callas"
INDEX 01 58:07:53
TRACK 10 AUDIO
TITLE "10 Act II - Ma qual sorge tumulto!"
PERFORMER "Maria Callas"
INDEX 01 61:05:38

REM GENRE Opera
REM DATE 1951
REM DISCID 520CDC05
REM COMMENT "ExactAudioCopy v0.99pb5"
PERFORMER "Maria Callas 1951"
TITLE "Verdi: Nabucco - CD2"
FILE "CD2.flac" WAVE
TRACK 01 AUDIO
TITLE "01 Act III - E l'Assiria una regina"
PERFORMER "Maria Callas 1951"
INDEX 01 00:00:00
TRACK 02 AUDIO
TITLE "02 Act III - Eccelsa donna, che d'Assiria il fato"
PERFORMER "Maria Callas 1951"
INDEX 01 03:11:12
TRACK 03 AUDIO
TITLE "03 Act III - Va, pensiero"
PERFORMER "Maria Callas 1951"
INDEX 01 16:33:17
TRACK 04 AUDIO
TITLE "04 Act IV - Son pur queste mie membra"
PERFORMER "Maria Callas 1951"
INDEX 01 30:30:03
TRACK 05 AUDIO
TITLE "05 Act IV - Va! la palma del martirio"
PERFORMER "Maria Callas 1951"
INDEX 01 41:35:00

14. Legos_SPb (Legos_SPb)   (14 Июня 14 01:24)
Очень прошу перезалить файлы... А то срок действия истек.
Буду очень благодарен.

15. margi (Marguerite)   (31 Марта 18 13:51)
на ковриках написано Неаполь, 1951 год %) хде правда!?

18. alexey semlyanoy (terrestro)   (31 Марта 18 16:16)
Нет правды на земле!...

16. alexey semlyanoy (terrestro)   (31 Марта 18 16:15)
Тут надо сильно работать с усилителем, крутя-сюда громкость.... Утомляет дьявольски!!! :'(

Добавлять комментарии могут только зарегистрированные пользователи.
[ Регистрация | Вход ]

Аудио/видеозаписи и литература предоставляются исключительно для ознакомления. После ознакомления они должны быть удалены, иначе, вероятно, Вами будет нарушен закон "об авторском праве и смежных правах".
Помощь тяжело больным детям. Подробнее.
Форма входа








ПОГРУЖЕНИЕ В КЛАССИКУ. Здесь живет бесплатная классическая музыка в mp3 и других форматах.