Погружение в классику
Погружение в классику
RSS
аудио
Меню сайта
Поиск
по заголовкам
по всему сайту
поиск от Google

Из нашего архива
Венявский. Каприс. Ицхак Перельман [видео]
С.Барбер – Адажио [аудио]
Thirty-Two Short Films About Glenn Gould (Francois Girard, 1993)/Тридцать две истории о Гленне Гульде (Франсуа Жирар, 1993) [видео]
Календарь новостей
«  Август 2012  »
ПнВтСрЧтПтСбВс
  12345
6789101112
13141516171819
20212223242526
2728293031

Приветствуем Вас, Гость.
Текущая дата: Понедельник, 23 Октябрь 17, 03:39
Главная страница » 2012 » Август » 10 » Выдающиеся пианисты XX века: Франсуа Рене Дюшабль (1952): Шопен - Полонезы
Выдающиеся пианисты XX века: Франсуа Рене Дюшабль (1952): Шопен - Полонезы
Франсуа Рене Дюшабль родился в Париже в 1952 году. Его талант проявился в детском возрасте, и его отправили учиться в Парижскую консерваторию.

В 16 лет он завоевал престижную Премию королевы Елизаветы в Брюсселе, а в 1973 году дал свой первый концерт. Взлет его карьеры начался в 1980, когда он сделал запись с оркестром Берлинской филармонии под управлением Герберта фон Караяна. Затем он получил гран-при Академии Шарля Кро за запись этюдов Шопена.

В 1986 году Дюшабль завоевал Гран-при Французской академии грамзаписи за исполнение произведений Пуленка. В том же году его игра на фестивале Листа в Нью-Йорке получила восторженные отзывы. В 1987 он выступил в Лондоне на мемориальной службе по Антону Рубинштейну.

В 1996 году он был назван во Франции солистом года и удерживал этот титул в течение трех лет. В 1997 пианист получил во Франции премию за лучшую запись классической музыки, сыграв произведения Листа.


ссылка: http://narod.ru/disk/59141973001.fd459abf9d3842374948f445f50f49ec/Chopin_Polonaise_Duchable.rar.html
Категория: аудио | Просмотров: 1558 | Добавил(а): terrestro
Важно: что делать, если ссылка на скачивание не работает.
Понравился материал?
Ссылка
html (для сайта, блога, ...)
BB (для форума)
Комментарии
Всего комментариев: 15
1. anm (alyosha)   (10 Август 12 17:01)
Большое спасибо!

2. alex sidmak (sidmak)   (10 Август 12 20:37)
В 16 лет, то бишь в 68-ом
Его в Брюсселе в лучшей нет пятёрке.
Так что же он тогда завоевал?
Быть может размечтался на галёрке? :D

http://en.wikipedia.org/wiki/Queen_Elisabeth_Music_Competition

СПАСИБО!

3. (Jivien)   (10 Август 12 21:33)
Исправленный cue:
REM GENRE Romanticism
REM DATE 1997
REM COMMENT zhrvtsk
PERFORMER "F.- R.Duchable"
TITLE "Chopin F. Polonaises [11]"
FILE "Chopin_Polonaise_Duchable.flac" WAVE
TRACK 01 AUDIO
TITLE "Polonaise N07 (Polonaise-Fantaisie), As, op.61"
INDEX 01 00:00:00
TRACK 02 AUDIO
TITLE "Polonaise N01, cis, op.26 N1"
INDEX 01 11:12:52
TRACK 03 AUDIO
TITLE "Polonaise N02, es, op.26 N2"
INDEX 01 17:24:40
TRACK 04 AUDIO
TITLE "Polonaise N03, A, op.40 N1"
INDEX 01 24:06:65
TRACK 05 AUDIO
TITLE "Polonaise N04, c, op.40 N2"
INDEX 01 28:24:05
TRACK 06 AUDIO
TITLE "Polonaise N05, fis, op.44"
INDEX 01 33:10:17
TRACK 07 AUDIO
TITLE "Polonaise N06, As, op.53"
INDEX 01 42:41:27
TRACK 08 AUDIO
TITLE "Polonaise N08, d, op.71 N1"
INDEX 01 49:14:42
TRACK 09 AUDIO
TITLE "Polonaise N09, B, op.71 N2"
INDEX 01 53:39:62
TRACK 10 AUDIO
TITLE "Polonaise N10, f, op.71 N3"
INDEX 01 59:39:05
TRACK 11 AUDIO
TITLE "Andante spianato & grand polonaise brillante, Es, op.22"
INDEX 01 66:19:00

4. alexey semlyanoy (terrestro)   (10 Август 12 21:36)
Не понял. Поясните.

5. (Jivien)   (11 Август 12 04:45)
cue файл не работал в Фубаре. Теперь работает.

7. alexey semlyanoy (terrestro)   (11 Август 12 13:16)
Понял. Спасибо.

6. olda_ku (verik1913)   (11 Август 12 12:47)
Спасибо! appl appl appl

8. alexey semlyanoy (terrestro)   (11 Август 12 13:16)
piano violin

9. Theodor (theodor19)   (11 Август 12 17:52)
Спасибо! appl
Замечательный пианист - тонкий, вдумчивый.
И по-французски рационалистичный.
По такому случаю освежил ссылку здесь:
http://intoclassics.net/news/2012-08-11-699

10. alexey semlyanoy (terrestro)   (11 Август 12 18:09)
Спасибо за этюды! Хотя их у меня мало не десяток, всё же их можно слушать и слушать.
Да, Дюшабль - это мастерство и вкус.
А есть ли этюды с Франсуа здесь? Я этого "дитя порока" тоже люблю. :(

11. Theodor (theodor19)   (11 Август 12 18:30)
Вы, наверное, имели в виду Самсона Франсуа?
Здесь, помимо Вашего поста, есть еще Дебюсси в его исполнении:
http://intoclassics.net/news/2011-01-05-20667.
Этюдов Шопена в его исполнении не нашел.

12. alexey semlyanoy (terrestro)   (11 Август 12 20:08)
Разумеется, Самсона! Но не того, что разрывает пасть льву, а Франсуа.
У меня, кажется, есть. Я выложу.

15. anm (alyosha)   (11 Август 12 23:28)
Этюды Шопена (и др. произведения) в исполнении Франсуа, есть здесь:

http://intoclassics.net/news/2011-02-27-14383

13. NNN (Nora)   (11 Август 12 20:51)
Спасибо!

14. alexey semlyanoy (terrestro)   (11 Август 12 21:01)
violin violin piano

Добавлять комментарии могут только зарегистрированные пользователи.
[ Регистрация | Вход ]

Аудио/видеозаписи и литература предоставляются исключительно для ознакомления. После ознакомления они должны быть удалены, иначе, вероятно, Вами будет нарушен закон "об авторском праве и смежных правах".
Помощь тяжело больным детям. Подробнее.
Форма входа








ПОГРУЖЕНИЕ В КЛАССИКУ. Здесь живет бесплатная классическая музыка в mp3 и других форматах.