Погружение в классику
Погружение в классику
RSS
видео
Меню сайта
Поиск
по заголовкам
по всему сайту
поиск от Google

Из нашего архива
Н.В. Лысенко - Наталка Полтавка (дир. Борис Чистяков) [аудио]
Гленн Гульд играет Брамса, Вагнера, Грига, Штрауса и Сибелиуса [аудио]
Джироламо Фрескобальди и Луи Куперен, пьесы для клавесина, Густав Леонхардт (flac) [аудио]
Календарь новостей
«  Октябрь 2019  »
ПнВтСрЧтПтСбВс
 123456
78910111213
14151617181920
21222324252627
28293031

Приветствуем Вас, Гость.
Текущая дата: Вторник, 12 Ноября 19, 08:58
Главная страница » 2019 » Октябрь » 13 » Гилберт и Салливан - Микадо (Австралийская опера. 1987 г.)
Гилберт и Салливан - Микадо (Австралийская опера. 1987 г.)

Теги: Gilbert & Sullivan, Mikado, The Mikado, Opera Australia, Gilbert and Sullivan, Гилберт и Салливан, Микадо



Yum-Yum - Anne-Maree McDonalds
Nanki-Poo - Peter Cousens
Katisha - Heather Begg
Ko-Ko - Graeme Ewer
Pooh-Bah - Gregory Yurisich
The Mikado - Robert Eddie
Pitti-Sing - Jennifer Bermingham

Opera Australia
Conductor - Andrew Greene
Director - Christopher Renshaw
The Australian Opera Chorus
The Elizabethan Sydney Orchestra

Filmed at Sydney Opera House, Australia. 1987

Продолжительность - 02:30:26
Исполнение на английском языке

О произведении:
https://ru.wikipedia.org/wiki/Микадо_(опера)


DVD-9
Английские субтитры
Пароль - intoclassics
Ссылки:
1 - https://my-files.ru/kycikm
2 - https://my-files.ru/v0j5w4
3 - https://my-files.ru/41kkm0
4 - https://my-files.ru/c7yu6g
5 - https://my-files.ru/bj52yj
6 - https://my-files.ru/8ynpbg
7 - https://my-files.ru/b07xmp
8 - https://my-files.ru/3su4js

MKV
Формат: Matroska
Размер файла: 1,71 Гбайт 
Продолжительность: 2 ч. 30 м. 
Общий поток: 1625 Кбит/сек 
Английские субтитры и обложки 
Ссылка: https://my-files.ru/m93w90 
Без пароля

Автор рипа - Victor (Victormustang)
На файлообменник залила Инжир
Спасибо всем!!!

Категория: видео | Просмотров: 512 | Добавил(а): kurcevaelena
Важно: что делать, если ссылка на скачивание не работает.
Понравился материал?
Ссылка
html (для сайта, блога, ...)
BB (для форума)
Комментарии
Всего комментариев: 23
1. alex sidmak (sidmak)   (13 Октября 19 12:13)
Спасибо, только это либретто другого произведения.

2. alex sidmak (sidmak)   (13 Октября 19 13:57)
Ссылку зря убрали. В хозяйстве всё пригодится! Ведь всё равно в тему сообщение было. :)

3. Elena Kurceva (kurcevaelena)   (13 Октября 19 14:13)
О каких ссылках идет речь? Я ничего не убирала. :(

4. alex sidmak (sidmak)   (13 Октября 19 14:18)
Была тут ссылка в комментарии на либретто Юрия Димитрина "Trial by Jury" ("Суд присяжных").
А у Вас записи такой нет ли случаем?
-----------------------------
Нашёл! Там и Микадо и Суд присяжных в одном флаконе. :D The D'Oyly Carte Opera Company

6. Elena Kurceva (kurcevaelena)   (13 Октября 19 14:52)
"Суд присяжных" - видео - есть. На одном диске с "Пинафором", тоже из Австралийской оперы. Нужно?

8. alex sidmak (sidmak)   (13 Октября 19 15:03)
Не откажусь! Сюжет весьма забавный.
Мне на Истицу хочется взглянуть.
А зритель я исправный! :D

9. Elena Kurceva (kurcevaelena)   (13 Октября 19 15:06)
ok В следующие выходные выложу.
А пока буду coffee .
:D

13. Elena Kurceva (kurcevaelena)   (13 Октября 19 16:01)
Кстати, несколько других записей "Микадо" (аудио, видео) есть на Рутрекере и на Кинозале.

5. alex sidmak (sidmak)   (13 Октября 19 14:23)
Конечно, можно и авансом
сказать; СПАСИБО!, но привык
я рифмовать - когда скачаю,
во избежанье закавык! :D

СПАСИБО! Пока только по третьей ссылке скачиваю.

7. Elena Kurceva (kurcevaelena)   (13 Октября 19 14:54)
download
Жду окончания закачки... :D
Надеюсь, скачается и распакуется благополучно.

10. alex sidmak (sidmak)   (13 Октября 19 15:22)
А я был прав - либретто пригодилось!
Сердечко тут же радостно забилось!
Через неделю состоится рандеву!
И явится либретто наяву! :D

СПАСИБО!

12. Elena Kurceva (kurcevaelena)   (13 Октября 19 15:26)
:D

11. alex sidmak (sidmak)   (13 Октября 19 15:25)
Я уже забрал, но пока ещё не отблагодарился. shy

14. alex sidmak (sidmak)   (13 Октября 19 19:43)
Скачал и делаю ням-ням:
Уже сжевал два воба!
Лопочут что - не понимать!
Зато глазею в оба
на грим, на жесты, реквизит
и прочие устройства.
Причин не вижу никаких
пока для беспокойства! :)

15. Elena Kurceva (kurcevaelena)   (13 Октября 19 19:56)
yes

16. alex sidmak (sidmak)   (15 Октября 19 23:24)
Как быстро комментарии увяли!
Остался только наш дуэт.
Ещё недавно щедро ссылки здесь швыряли!
И ни одной в помине нет! serenade

17. Elena Kurceva (kurcevaelena)   (16 Октября 19 06:55)
Увы, это так. Я это тоже заметила.
Victor (Victormustang) еще выкладывал здесь ссылку на рип. Я даже поблагодарить его не успела, как комментарий со ссылкой был удален.
:(

18. (Инжир)   (16 Октября 19 13:54)
Здравствуйте!
Я успела скачать рип, ссылку на который здесь в комментариях давал Victor (Victormustang).
Залила архив к себе. Держите...

Формат: Matroska - MKV
Размер файла: 1,71 Гбайт
Продолжительность: 2 ч. 30 м.
Общий поток: 1625 Кбит/сек
Английские субтитры и обложки
Ссылка: https://my-files.ru/m93w90
Без пароля

Видео
Формат: AVC
Идентификатор кодека: V_MPEG4/ISO/AVC
Битрейт: 1432 Кбит/сек
Ширина: 1024 пикселя
Высота: 576 пикселей
Соотношение сторон: 16:9
Режим частоты кадров: Постоянный
Частота кадров: 29,970 (30000/1001) кадров/сек
Размер потока: 1,51 Гбайт (88%)

Аудио
Формат: AC-3
Идентификатор кодека: A_AC3
Вид битрейта: Постоянный
Битрейт: 160 Кбит/сек
Каналы: 2 канала
Channel layout: L R
Частота: 44,1 КГц
Битовая глубина: 16 бит
Размер потока: 172 Мбайт (10%)
Язык: English

О качестве ничего сказать не могу, потому что скачала, но ещё не смотрела.
СПАСИБО за DVD-9!!!

19. Elena Kurceva (kurcevaelena)   (16 Октября 19 14:18)
Спасибо Вам! :)
Я добавила Вашу ссылку в пост, чтобы ее быстрее находили.
Спасибо большое и Вам, и Виктору!!! good

20. (Butel60)   (19 Октября 19 18:36)
Спасибо огромное всем, кто участвовал в выкладке!!! Очень интересная для меня запись. appl appl appl

21. Elena Kurceva (kurcevaelena)   (19 Октября 19 19:34)
Пожалуйста. :)
А еще сюда загляните:
http://intoclassics.net/news/2019-10-19-48071
:)

22. (Butel60)   (19 Октября 19 20:52)
Да, тоже супер! Еще раз огромное спасибо!!! bravo bravo bravo

23. Elena Kurceva (kurcevaelena)   (19 Октября 19 21:14)
:)

Добавлять комментарии могут только зарегистрированные пользователи.
[ Регистрация | Вход ]

Аудио/видеозаписи и литература предоставляются исключительно для ознакомления. После ознакомления они должны быть удалены, иначе, вероятно, Вами будет нарушен закон "об авторском праве и смежных правах".
Помощь тяжело больным детям. Подробнее.
Форма входа








ПОГРУЖЕНИЕ В КЛАССИКУ. Здесь живет бесплатная классическая музыка в mp3 и других форматах.