Погружение в классику
Погружение в классику
RSS
аудио
Меню сайта
Поиск
по заголовкам
по всему сайту
поиск от Google

Из нашего архива
В.А.Моцарт, Реквием. Караян, Анна Томова-Синтова, Агнес Бальтса, Вернер Кренн, Жозе Ван Дам [аудио]
Елена Образцова: 3 арии + русские романсы mp3 [аудио]
Густав Малер: Симфония Но.3 - Адажио [аудио]
Календарь новостей
«  Апрель 2017  »
ПнВтСрЧтПтСбВс
     12
3456789
10111213141516
17181920212223
24252627282930

Приветствуем Вас, Гость.
Текущая дата: Вторник, 25 Апрель 17, 01:59
Главная страница » 2017 » Апрель » 21 » Перголези - Stabat Mater. Хор мальчиков Моск Хор.уч, хор и орк. студ Моск Конс, дир. А.Свешников
Перголези - Stabat Mater. Хор мальчиков Моск Хор.уч, хор и орк. студ Моск Конс, дир. А.Свешников

Теги: Перголези, Свешников

Материл восстановлен
 Бывший материал участника Андрей Константинов (АК

В коллекцию записей Свешникова.

Солисты  - Е.Егорова (сопрано) и Н.Исакова (альт)

Запись середины 50-х годов, оцифровка ("как есть", одним треком FLAC, ок. 100 Мб) оригинальной виниловой пластинки

https://cloud.mail.ru/public/G2j5/RRqm8p7yp 
Категория: аудио | Просмотров: 2754 | Добавил(а): Peir
Важно: что делать, если ссылка на скачивание не работает.
Понравился материал?
Ссылка
html (для сайта, блога, ...)
BB (для форума)
Комментарии
Всего комментариев: 10
1. Дмитрий (Peir)   (09 Январь 11 16:50)
Спасибо! appl appl appl

2. Валентин (valuy7780)   (09 Январь 11 19:22)
ОГО! bravo bravo bravo bravo

3. (Amateur18O)   (09 Январь 11 21:32)
Спасибо большое!

4. Victor (Baravik)   (09 Март 11 22:18)
Спасибо.
По моим сведениям, эта запись сделана примерно в 1961 году.

5. Дмитрий (Peir)   (21 Апрель 17 14:13)
Новая ссылка
https://cloud.mail.ru/public/G2j5/RRqm8p7yp

7. Igor (igk7)   (23 Апрель 17 11:45)
Спасибо, очень хорошая пластинка.

6. Сергей Федорович (sergfv)   (21 Апрель 17 23:34)
Спасибо!

8. Igor (igk7)   (23 Апрель 17 11:47)
Для cue:
PERFORMER "Sveshnikov boys Choir of Moscow Conservatory"
TITLE "Giovanni Battista Pergolesi – Stabat Mater"

FILE "Stabat_Mater.flac" WAVE

TRACK 01 AUDIO
TITLE "Duetto (Choir). Grave"
PERFORMER "Sveshnikov boys Choir of Moscow Conservatory"
INDEX 01 00:00:00
TRACK 02 AUDIO
TITLE "Aria (Soprano Solo). Andante Amoroso"
PERFORMER "Sveshnikov boys Choir of Moscow Conservatory"
INDEX 01 05:23:00
TRACK 03 AUDIO
TITLE "Duetto (Choir). Larghetto"
PERFORMER "Sveshnikov boys Choir of Moscow Conservatory"
INDEX 01 08:21:28
TRACK 04 AUDIO
TITLE "Aria (Alto Solo). Allegro"
PERFORMER "Sveshnikov boys Choir of Moscow Conservatory"
INDEX 01 11:25:16
TRACK 05 AUDIO
TITLE " Duetto (Soprano, Alto et Choir). Largo"
PERFORMER "Sveshnikov boys Choir of Moscow Conservatory"
INDEX 01 14:03:03
TRACK 06 AUDIO
TITLE "Aria (Soprano Solo). Tempo Giusto"
PERFORMER "Sveshnikov boys Choir of Moscow Conservatory"
INDEX 01 17:43:34
TRACK 07 AUDIO
TITLE "Aria (Alto Solo). Andantino"
PERFORMER "Sveshnikov boys Choir of Moscow Conservatory"
INDEX 01 22:43:13
TRACK 08 AUDIO
TITLE "Duetto (Choir). Allegro"
PERFORMER "Sveshnikov boys Choir of Moscow Conservatory"
INDEX 01 26:01:12
TRACK 09 AUDIO
TITLE "Duetto (Choir). A Tempo Giusto"
PERFORMER "Sveshnikov boys Choir of Moscow Conservatory"
INDEX 01 28:43:08
TRACK 10 AUDIO
TITLE "Aria (Alto Solo). Largo"
PERFORMER "Sveshnikov boys Choir of Moscow Conservatory"
INDEX 01 32:48:08
TRACK 11 AUDIO
TITLE "Duetto (Choir). Allegro, Ma Non Troppo"
PERFORMER "Sveshnikov boys Choir of Moscow Conservatory"
INDEX 01 36:30:08
TRACK 12 AUDIO
TITLE "Duetto (Choir). Largo Assai"
PERFORMER "Sveshnikov boys Choir of Moscow Conservatory"
INDEX 01 38:41:08
TRACK 13 AUDIO
TITLE "Duetto (Choir). Presto Assai"
PERFORMER "Sveshnikov boys Choir of Moscow Conservatory"
INDEX 01 42:25:08

9. Valery Baklan (valery_baklan)   (23 Апрель 17 14:48)
Спасибо!!! aiwan-hi bravo2 bravo2 bravo2 flowers

10. Дима Петров (Damian8673)   (23 Апрель 17 21:56)
Большое спасибо! appl bravo appl

Добавлять комментарии могут только зарегистрированные пользователи.
[ Регистрация | Вход ]

Аудио/видеозаписи и литература предоставляются исключительно для ознакомления. После ознакомления они должны быть удалены, иначе, вероятно, Вами будет нарушен закон "об авторском праве и смежных правах".
Помощь тяжело больным детям. Подробнее.
Форма входа








ПОГРУЖЕНИЕ В КЛАССИКУ. Здесь живет бесплатная классическая музыка в mp3 и других форматах.