Погружение в классику
Погружение в классику
RSS
аудио
Меню сайта
Поиск
по заголовкам
по всему сайту
поиск от Google

Из нашего архива
В.А. Моцарт, концерты для фортепиано с оркестром №1-4, Ингрид Хеблер (ape) [аудио]
А.Дворжак, Р.Шуман – Концерты для Виолончели с оркестром. Жаклин Дюпре. [аудио]
Святослав Рихтер, The Master, том 4 - Бетховен (ape) [аудио]
Календарь новостей
«  Февраль 2017  »
ПнВтСрЧтПтСбВс
  12345
6789101112
13141516171819
20212223242526
2728

Приветствуем Вас, Гость.
Текущая дата: Суббота, 24 Июнь 17, 18:45
Главная страница » 2017 » Февраль » 11 » Разные авторы - Транскрипции для фортепиано. Сиприан Катсарис
Разные авторы - Транскрипции для фортепиано. Сиприан Катсарис


Сиприан Катсарис (Cyprien Katsaris) - фортепиано
Запись 2008 г.

APE+CUE
184 Mb

Информация о пианисте:
http://ru.wikipedia.org/wiki/Катсарис,_Сиприан

alyosha обновил ссылку:

https://cloud.mail.ru/public/26z1/tBbKyHxzP
Категория: аудио | Просмотров: 3098 | Добавил(а): anakim14
Важно: что делать, если ссылка на скачивание не работает.
Понравился материал?
Ссылка
html (для сайта, блога, ...)
BB (для форума)
Комментарии
Всего комментариев: 15
1. Андрей Акимов (anakim14)   (01 Апрель 10 14:35)
Мне очень понравился этот альбом, все транскрипции - мировая премьера, кроме № 12 и 14.

2. anm (alyosha)   (01 Апрель 10 14:48)
Спасибо!

3. alex sidmak (sidmak)   (01 Апрель 10 15:44)
Транс со скрипом я люблю!
Щас скачаю, ай-лю-лю! :D :D :D

СПАСИБО!


4. alex sidmak (sidmak)   (01 Апрель 10 16:09)
Уважаемый, Андрей!
Не увлекайтесь, пожалуйста, сканами содержания диска.
Файл cue в Вашем архиве не содержит никакой информации о треках и если бы Вы здесь напечатали эту информацию, то значительно упростили бы задачу по приведению его в порядок.

5. Андрей Акимов (anakim14)   (01 Апрель 10 17:55)
Уважаемый alex sidmak! Вы можете сделать это сами в комментариях к моим постам. Думаю, все будут Вам благодарны. You are welcome. :D

6. Дмитрий (Midial)   (01 Апрель 10 18:33)
REM DISCID F10F9F0F
REM COMMENT "ExactAudioCopy v0.99pb4"
PERFORMER "Cyprien Katsaris"
TITLE "Piano Rarities Vol.1 - Transcriptions"
FILE "Unknown Artist - Unknown Title.ape" WAVE
TRACK 01 AUDIO
TITLE "Kreisler. Praeludium and Allegro in the style of Pugnani"
PERFORMER "Cyprien Katsaris"
FLAGS DCP
INDEX 01 00:00:00
TRACK 02 AUDIO
TITLE "Schumann. MondNacht, op.39 no.5"
PERFORMER "Cyprien Katsaris"
FLAGS DCP
INDEX 00 05:53:56
INDEX 01 05:55:65
TRACK 03 AUDIO
TITLE "Schubert. Gesang (An Sylvia), op.106 no.4 (D.891)"
PERFORMER "Cyprien Katsaris"
FLAGS DCP
INDEX 00 10:15:15
INDEX 01 10:19:34
TRACK 04 AUDIO
TITLE "Wagner. Der Engel (No.1 from Wesendonck-Lieder)"
PERFORMER "Cyprien Katsaris"
FLAGS DCP
INDEX 00 12:49:43
INDEX 01 12:52:24
TRACK 05 AUDIO
TITLE "Strauss. Zueignung, op.10 no.1"
PERFORMER "Cyprien Katsaris"
FLAGS DCP
INDEX 00 16:34:16
INDEX 01 16:37:47
TRACK 06 AUDIO
TITLE "Mahler. Adagietto from Symphony No.5"
PERFORMER "Cyprien Katsaris"
FLAGS DCP
INDEX 00 18:02:10
INDEX 01 18:03:32
TRACK 07 AUDIO
TITLE "Mompou. Damunt de tu nomes les flors"
PERFORMER "Cyprien Katsaris"
FLAGS DCP
INDEX 00 27:55:42
INDEX 01 28:00:65
TRACK 08 AUDIO
TITLE "Taregga. Recuerdos de la Alhambra"
PERFORMER "Cyprien Katsaris"
FLAGS DCP
INDEX 00 32:24:25
INDEX 01 32:27:29
TRACK 09 AUDIO
TITLE "Barrios Mangore. Choro Da Saudade"
PERFORMER "Cyprien Katsaris"
FLAGS DCP
INDEX 00 36:08:64
INDEX 01 36:11:69
TRACK 10 AUDIO
TITLE "Bizet. Adieux de l'Hotesse arabe"
PERFORMER "Cyprien Katsaris"
FLAGS DCP
INDEX 00 42:30:23
INDEX 01 42:34:55
TRACK 11 AUDIO
TITLE "Faure. Nell, op.18 no.1"
PERFORMER "Cyprien Katsaris"
FLAGS DCP
INDEX 00 47:54:39
INDEX 01 47:57:38
TRACK 12 AUDIO
TITLE "Delibes. Valse from Coppelia"
PERFORMER "Cyprien Katsaris"
FLAGS DCP
INDEX 00 50:22:43
INDEX 01 50:26:34
TRACK 13 AUDIO
TITLE "Moniuszko. Gwiazdka"
PERFORMER "Cyprien Katsaris"
FLAGS DCP
INDEX 00 56:46:04
INDEX 01 56:48:62
TRACK 14 AUDIO
TITLE "Rachmaninov. Vocalise"
PERFORMER "Cyprien Katsaris"
FLAGS DCP
INDEX 00 58:58:08
INDEX 01 59:00:09
TRACK 15 AUDIO
TITLE "Gliere. Valse from The Bronze Horseman"
PERFORMER "Cyprien Katsaris"
FLAGS DCP
INDEX 00 62:43:25
INDEX 01 62:46:16

10. alex sidmak (sidmak)   (03 Апрель 10 16:34)
Благодарю!
Ещё вот эту строчку поправил
FILE "Unknown Artist - Unknown Title.ape" WAVE
и стало совсем хорошо! :)

12. anm (alyosha)   (29 Май 12 12:46)
Большое спасибо!

14. Михаил Макарычев (Что-что)   (08 Февраль 17 16:58)
Путаница в названиях произведений

7. Oleg (legoru)   (01 Апрель 10 20:51)
Спасибо! piano

8. Admirador (iura)   (01 Апрель 10 23:06)
Спасибо! очень симпатичный диск. booze

9. Яков Сапожник (Sapogy)   (02 Апрель 10 02:13)
appl appl appl appl appl

11. anm (alyosha)   (29 Май 12 12:45)
Большое спасибо за обновление ссылки!

13. Виктория (sugureta)   (29 Май 12 13:12)
Спасибо!

15. Sviatoslav (sslav75)   (12 Февраль 17 09:31)
Спасибо! appl

Что ж он сделал с Вокализом, пакостник! Какой-то он стал... киприотский! ...

Добавлять комментарии могут только зарегистрированные пользователи.
[ Регистрация | Вход ]

Аудио/видеозаписи и литература предоставляются исключительно для ознакомления. После ознакомления они должны быть удалены, иначе, вероятно, Вами будет нарушен закон "об авторском праве и смежных правах".
Помощь тяжело больным детям. Подробнее.
Форма входа








ПОГРУЖЕНИЕ В КЛАССИКУ. Здесь живет бесплатная классическая музыка в mp3 и других форматах.