Погружение в классику
Погружение в классику
RSS
аудио
Меню сайта
Поиск
по заголовкам
по всему сайту
поиск от Google
поиск от Яndex

Из нашего архива
Ф.Шуберт – 8 Экспромтов для фортепиано Op.90, Op.142. А. Шифф. [аудио]
А.Милка - Музыкальное приношение И.С.Баха. К реконструкции и интерпретации. (1999) [литература]
Фредерик Шопен – 10 Мазурок, Прелюдия op. 45, Баллада №1, Скерцо №2. Артуро Бенедетти Микеланджели (ape) [аудио]
Календарь новостей
«  Август 2016  »
ПнВтСрЧтПтСбВс
1234567
891011121314
15161718192021
22232425262728
293031

Приветствуем Вас, Гость.
Текущая дата: Вторник, 06 Декабрь 16, 11:18
Главная страница » 2016 » Август » 25 » Lully - Roland (Les Talens Lyriques, Christophe Rousset) / Люлли - Роланд
Lully - Roland (Les Talens Lyriques, Christophe Rousset) / Люлли - Роланд

Теги: Lully, Люлли, Christophe Rousset, Les Talens Lyriques, Роланд, Roland

Roland, LWV 65
Tragédie mise en Musique de Jean-Baptiste LULLY
sur un livret de Philippe Quinault
Roland, Nicolas Testé, basse
Angélique, Anna Maria Panzarella, dessus
Médor, Olivier Dumait, ténor haute-contre
Témire, Bélise, Monique Zanetti, dessus
Astolphe, Robert Getchell, ténor haute-contre
La Fée principale, Logistille, Salomé Haller, dessus
Ziliante, Démogorgon,
un Suivant d'Angélique, Evgueniy Alexiev, basse
Tersandre, un Insulaire, Emiliano Gonzalez-Toro, taille
Coridon, un Insulaire, Anders J. Dahlin, ténor haute-contre
Une Pastourelle, Une Amante contente,
une Suivante d'Angélique, Marie-Hélène Essade, dessus
La Gloire, une Suivante d'Angélique,
une Amante contente, Delphine Gillot, dessus
Les Talens Lyriques
Choeur de l'Opéra de Lausanne
Dir. Christophe Rousset

Flac CDImage, cue, logs, полный буклет, 900 MB 

https://mega.nz/#fm/VkQEHQRa
https://yadi.sk/d/pAhBEJ2WuVQnP
https://cloud.mail.ru/public/5xu2/4YaZpKFnY

Cleobule and Meeting in Music blogspot
также я на Рутрекере

Категория: аудио | Просмотров: 299 | Добавил(а): CaterinaSforza
Важно: что делать, если ссылка на скачивание не работает.
Понравился материал?
Ссылка
html (для сайта, блога, ...)
BB (для форума)
Комментарии
Всего комментариев: 5
1. Сергей Федорович (sergfv)   (25 Август 16 22:05)
Спасибо!

2. Вяч Евт (evtuchin)   (26 Август 16 10:40)
Большое спасибо. Однако не открывается через cue первый диск: Unable to open item for playback (Error parsing cuesheet: invalid TITLE syntax (line 38)):. Поскольку в cuesheet текст у Вас идет сплошняком, то найти line 38 оказывается делом непростым.

3. Michael Orlov (CaterinaSforza)   (26 Август 16 18:41)
Я Potplayer всё нормально отрыл, запускал с самого файла cue.
Сами cue в полном порядке
TITLE "Lully - Roland"
PERFORMER "Les Talens lyriques"
REM GENRE "Classical"
REM DATE "2005"
REM DISCNUMBER 1
REM TOTALDISCS 3
REM DISCID B60B2A0F
FILE "Lully - Roland.flac" WAVE
TRACK 01 AUDIO
TITLE "Lully: Rolland - Prologue, Ouverture"
SONGWRITER "Jean-Baptiste Lully"
INDEX 01 00:00:00
TRACK 02 AUDIO
TITLE "Lully: Rolland - Le Ciel Qui M'A Fait Vôtre Roi"
SONGWRITER "Jean-Baptiste Lully"
INDEX 01 03:47:48
TRACK 03 AUDIO
TITLE "Lully: Rolland - Première Entrée, Menuets"
SONGWRITER "Jean-Baptiste Lully"
INDEX 01 06:44:07
TRACK 04 AUDIO
TITLE "Lully: Rolland - Au Milieu D'Une Paix Profonde"
SONGWRITER "Jean-Baptiste Lully"
INDEX 01 08:43:30
TRACK 05 AUDIO
TITLE "Lully: Rolland - Seconde Entrée, Gigue"
SONGWRITER "Jean-Baptiste Lully"
INDEX 01 12:09:02
TRACK 06 AUDIO
TITLE "Lully: Rolland - Gavotte Une Fée, Choeur Des Génies Et Des Fées"
SONGWRITER "Jean-Baptiste Lully"
INDEX 01 13:01:58
TRACK 07 AUDIO
TITLE "Lully: Rolland - Ouverture"
SONGWRITER "Jean-Baptiste Lully"
INDEX 01 16:12:31
TRACK 08 AUDIO
TITLE "Lully: Rolland - Act 1: Ah ! Que Mon Coeur Est Agité ! ""
SONGWRITER "Jean-Baptiste Lully"
INDEX 01 18:48:61
TRACK 09 AUDIO
TITLE "Lully: Rolland - Act 1: Vous Avez Peu D'Impatience ""
SONGWRITER "Jean-Baptiste Lully"
INDEX 01 20:24:33
TRACK 10 AUDIO
TITLE "Lully: Rolland - Act 1: Ah ! Quel Tourment ""
SONGWRITER "Jean-Baptiste Lully"
INDEX 01 26:25:37
TRACK 11 AUDIO
TITLE "Lully: Rolland - Act 1: De La Part De Roland On Vient Jusqu'En Ces Lieux ""
SONGWRITER "Jean-Baptiste Lully"
INDEX 01 28:21:47
TRACK 12 AUDIO
TITLE "Lully: Rolland - Act 1: Je Ne Verrai Plus Ce Que J'Aime"
SONGWRITER "Jean-Baptiste Lully"
INDEX 01 33:32:10
TRACK 13 AUDIO
TITLE "Lully: Rolland - Act 1: Au Généreux Roland Je Dois Ma Délivrance"
SONGWRITER "Jean-Baptiste Lully"
INDEX 01 37:52:08
TRACK 14 AUDIO
TITLE "Lully: Rolland - Act 1: Triomphez, Charmante Reine"
SONGWRITER "Jean-Baptiste Lully"
INDEX 01 39:58:39
TRACK 15 AUDIO
TITLE "Lully: Rolland - Act 1: Dans Nos Climats Sans Chagrin On Soupire"
SONGWRITER "Jean-Baptiste Lully"
INDEX 01 42:54:37

4. Вяч Евт (evtuchin)   (26 Август 16 20:00)
Уважаемый (ая) Michael Orlov (CaterinaSforza)
Спасибо Вам за построчно представленный cuesheet 1-го диска Roland`а. Я (с помощью CUE Splitter) нашел здесь четыре ошибки. Теперь первый диск у меня (в Foobar`е) открывается через cue. Ошибки следующие:
1. TRACK 08 AUDIO
TITLE "Lully: Rolland - Act 1: Ah ! Que Mon Coeur Est Agité ! ""
В самом конце TITLE, после восклицательного знака стоит лишний пробел и лишние кавычки
Далее аналогично:
2. TRACK 09 AUDIO
TITLE "Lully: Rolland - Act 1: Vous Avez Peu D'Impatience ""
3. TRACK 10 AUDIO
TITLE "Lully: Rolland - Act 1: Ah ! Quel Tourment ""
4. TRACK 11 AUDIO
TITLE "Lully: Rolland - Act 1: De La Part De Roland On Vient Jusqu'En Ces Lieux ""
Еще раз большое спасибо.
В.Е.

5. Пётр Аркадьев (peterarkadiev)   (27 Август 16 01:11)
Спасибо.

Добавлять комментарии могут только зарегистрированные пользователи.
[ Регистрация | Вход ]

Аудио/видеозаписи и литература предоставляются исключительно для ознакомления. После ознакомления они должны быть удалены, иначе, вероятно, Вами будет нарушен закон "об авторском праве и смежных правах".
Помощь тяжело больным детям. Подробнее.
Форма входа








ПОГРУЖЕНИЕ В КЛАССИКУ. Здесь живет бесплатная классическая музыка в mp3 и других форматах.