Погружение в классику
Погружение в классику
RSS
видео
Меню сайта
Поиск
по заголовкам
по всему сайту
поиск от Google
поиск от Яndex

Из нашего архива
Н.А. Римский-Корсаков, "Шехеразада", А.П. Бородин "Половецкие пляски". Герберт фон Караян. (APE) [аудио]
Д. Шостакович - Концерты для cкрипки с оркестром №№1, 2; Э. Изаи - Amitié [аудио]
Г.Ф.Гендель (1685-1759), Органные концерты [видео]
Календарь новостей
«  Ноябрь 2015  »
ПнВтСрЧтПтСбВс
      1
2345678
9101112131415
16171819202122
23242526272829
30

Приветствуем Вас, Гость.
Текущая дата: Четверг, 08 Декабрь 16, 19:07
Главная страница » 2015 » Ноябрь » 1 » Виктория Муллова Страдивари в Рио 2014 Viktoria Mullova Stradivarius in Rio
Виктория Муллова Страдивари в Рио 2014 Viktoria Mullova Stradivarius in Rio

Теги: Виктория Муллова, Муллова

Viktoria Mullova Stradivarius in Rio 2014
Виктория Муллова Страдивари в Рио

flac, 280 Mb

ссылка: https://cloud.mail.ru/public/LJpV/mzfYSqki2

Категория: видео | Просмотров: 997 | Добавил(а): lzp3881
Важно: что делать, если ссылка на скачивание не работает.
Понравился материал?
Ссылка
html (для сайта, блога, ...)
BB (для форума)
Комментарии
Всего комментариев: 4
1. (Jivien)   (02 Ноябрь 15 16:33)
Что-то я cue не обнаружил.

REM GENRE Jazz
REM DATE 2014
REM COMMENT zhrvtsk
PERFORMER "V.Mullova"
TITLE "Stradivarius in Rio"
FILE "V.Mullova_Stradivarius in Rio, 2014.flac" WAVE
TRACK 01 AUDIO
TITLE "Nucci C. Toada "
INDEX 01 00:00:00
TRACK 02 AUDIO
TITLE "Vogeler H. Linda Flor (Ai Ioio) "
INDEX 01 02:30:66
TRACK 03 AUDIO
TITLE "Costa S. Segue Teu Destino "
INDEX 01 07:46:00
TRACK 04 AUDIO
TITLE "Monte M. Vilarejo"
INDEX 01 12:06:73
TRACK 05 AUDIO
TITLE "Veloso C. Luz Do Sol"
INDEX 01 16:32:14
TRACK 06 AUDIO
TITLE "Azevedo W. Brasileirinho"
INDEX 01 19:40:48
TRACK 07 AUDIO
TITLE "Jobim A.C. Dindi"
INDEX 01 22:02:38
TRACK 08 AUDIO
TITLE "Jobim A.C. Chovendo Na Roseira"
INDEX 01 27:34:67
TRACK 09 AUDIO
TITLE "Baptista A. Balada De Um Louco "
INDEX 01 31:50:42
TRACK 10 AUDIO
TITLE "Abreu Z.de _Tico Tico"
INDEX 01 36:20:50
TRACK 11 AUDIO
TITLE "Jobim A.C. Falando De Amor"
INDEX 01 40:24:49
TRACK 12 AUDIO
TITLE "Rosa (Pixinguinha)"
INDEX 01 43:29:42
TRACK 13 AUDIO
TITLE "Jobim A.C. Por Toda Minha Vida"
INDEX 01 46:09:03

2. José Carlos Neves Lopes (neveslopes7)   (02 Ноябрь 15 17:10)
Why this horrible photo?

3. Vlad (vladim)   (03 Ноябрь 15 13:44)
Явно коммерческий диск - но Муллова и почему бы нет?
Спасибо!
:)
***
Особое спасибо за CUE!!!

appl appl appl

4. Vladimir (secomp)   (20 Сентябрь 16 08:17)
ссылка не рабочая

Добавлять комментарии могут только зарегистрированные пользователи.
[ Регистрация | Вход ]

Аудио/видеозаписи и литература предоставляются исключительно для ознакомления. После ознакомления они должны быть удалены, иначе, вероятно, Вами будет нарушен закон "об авторском праве и смежных правах".
Помощь тяжело больным детям. Подробнее.
Форма входа








ПОГРУЖЕНИЕ В КЛАССИКУ. Здесь живет бесплатная классическая музыка в mp3 и других форматах.