Погружение в классику
Погружение в классику
RSS
аудио
Меню сайта
Поиск
по заголовкам
по всему сайту
поиск от Google

Из нашего архива
И.С. Бах, "Страсти по Матфею" (Видео) (1971) [видео]
Играет Галина Федорова, фп [аудио]
Поет Сидор Беларский [аудио]
Календарь новостей
«  Май 2015  »
ПнВтСрЧтПтСбВс
    123
45678910
11121314151617
18192021222324
25262728293031

Приветствуем Вас, Гость.
Текущая дата: Пятница, 15 Декабрь 17, 22:50
Главная страница » 2015 » Май » 10 » Людвиг Ван Бетховен, все сонаты для фортепиано в исполнении Артура Шнабеля (8 CD, ape)
Людвиг Ван Бетховен, все сонаты для фортепиано в исполнении Артура Шнабеля (8 CD, ape)
$IMAGE2$

Записи 1931-1935 г.г.

ape+cue

пароль "classical.ucoz.ru"

тема о Шнабеле на forumklassika.ru

Мне это исполнение нравится гораздо больше исполнения Аррау.

Олег (OlegTheMath) обновил ссылки:

https://cloud.mail.ru/public/4PqR1HkMQpCu/LvB%20P.S.%20-%20A.S.rar

Категория: аудио | Просмотров: 7768 | Добавил(а): classical
Важно: что делать, если ссылка на скачивание не работает.
Понравился материал?
Ссылка
html (для сайта, блога, ...)
BB (для форума)
Комментарии
Всего комментариев: 32
1. Сергей   (03 Сентябрь 07 14:11)
Спасибо огромное!

2. Юлия (Юлия)   (05 Сентябрь 07 16:32)
bravo Шнабель!
Спасибо,Женя ,огромное!Солидарна с Вами в оценке исполнения .Понравилось очень! appl appl appl

3. Женя (classical)   (05 Сентябрь 07 16:43)
Как ни странно, у Шнабеля немало технических погрешностей, некоторые из которых слышны даже моему уху, смазанные трели, например (у Аррау я ничего такого не слышал). Кое-что слушали вместе с Маэстро - он слышит больше погрешностей, чем я, и утверждает, что трактовка Шнабеля очень своеобразная, ни на что не похожая, о чем я, впрочем, и читал. В этом он похож, наверное, на Гульда (которого, кажется, не любил), Юдину, ...
При этом нам обоим Шнабель очень нравится. На фоне его волшебства его погрешности малосущественны.

4. Юлия (Юлия)   (05 Сентябрь 07 21:26)
Прошу прощения у компетентной публики, но я не специалист, и мое ухо не всегда слышит погрешности исполнения .поэтому я доверяюсь своим чувствам. и часто для меня важнее эмоциональная окраска исполнения,чем безукоризненная холодная техника.Но всегда интересно знать мнение других ,более сведущих людей, поэтому теперь -то я ,может, попробую обратить внимание и на это.Спасибо,Женя. :)

5. Миша   (09 Сентябрь 07 12:00)
Простите, а на третьем диске у всех файл cue не работает?

6. Артем   (09 Сентябрь 07 23:52)
У меня тоже не работает cue к третьему диску. :(

7. Женя (classical)   (10 Сентябрь 07 01:52)
Дико извиняюсь. Вот правильный cue.

PERFORMER "Ludwig van Beethoven - Artur Schnabel"
TITLE "Piano Sonatas (3 of 8)"
FILE "CDImage CD3.ape" WAVE
TRACK 01 AUDIO
TITLE "Sonata No 8, in C Minor, Op 13 'Pathetique' Grave - Allegro motto e con brio"
PERFORMER "Ludwig van Beethoven - Artur Schnabel"
INDEX 01 00:00:00
TRACK 02 AUDIO
TITLE "Sonata No 8, in C Minor, Op 13 'Pathetique' Adagio cantabile"
PERFORMER "Ludwig van Beethoven - Artur Schnabel"
INDEX 01 08:33:57
TRACK 03 AUDIO
TITLE "Sonata No 8, in C Minor, Op 13 'Pathetique' Rondo (Allegro)"
PERFORMER "Ludwig van Beethoven - Artur Schnabel"
INDEX 01 14:40:57
TRACK 04 AUDIO
TITLE "Sonata No 9 in E Major Op 14, Nr 1 Allegro"
PERFORMER "Ludwig van Beethoven - Artur Schnabel"
INDEX 01 18:52:64
TRACK 05 AUDIO
TITLE "Sonata No 9 in E Major Op 14, Nr 1 Allegretto"
PERFORMER "Ludwig van Beethoven - Artur Schnabel"
INDEX 01 25:42:03
TRACK 06 AUDIO
TITLE "Sonata No 9 in E Major Op 14, Nr 1 Rondo (Allegro comodo)"
PERFORMER "Ludwig van Beethoven - Artur Schnabel"
INDEX 01 29:55:00
TRACK 07 AUDIO
TITLE "Sonata No 10, in G Major, Op 14 Nr 2 Allegro"
PERFORMER "Ludwig van Beethoven - Artur Schnabel"
INDEX 01 33:06:67
TRACK 08 AUDIO
TITLE "Sonata No 10, in G Major, Op 14 Nr 2 Andante"
PERFORMER "Ludwig van Beethoven - Artur Schnabel"
INDEX 01 38:58:57
TRACK 09 AUDIO
TITLE "Sonata No 10, in G Major, Op 14 Nr 2 Scherzo (Allegro assai)"
PERFORMER "Ludwig van Beethoven - Artur Schnabel"
INDEX 01 46:08:69
TRACK 10 AUDIO
TITLE "Sonata No 11 in B Flat Major Op 22 Allegro Con Brio"
PERFORMER "Ludwig van Beethoven - Artur Schnabel"
INDEX 01 49:44:66
TRACK 11 AUDIO
TITLE "Sonata No 11 in B Flat Major Op 22 Adagio con molta espressione"
PERFORMER "Ludwig van Beethoven - Artur Schnabel"
INDEX 01 56:26:68
TRACK 12 AUDIO
TITLE "Sonata No 11 in B Flat Major Op 22 Menuetto"
PERFORMER "Ludwig van Beethoven - Artur Schnabel"
INDEX 01 65:31:72
TRACK 13 AUDIO
TITLE "Sonata No 11 in B Flat Major Op 22 Rondo (Allegretto)"
PERFORMER "Ludwig van Beethoven - Artur Schnabel"
INDEX 01 68:55:02

8. Юра   (10 Сентябрь 07 15:12)
Женя, cпасибо за Шнабеля. Вопрос и просьба: а можно ли перезалить уже стёртые сонаты № 29, 30, 31 в исполнении Аррау ?

9. Женя (classical)   (10 Сентябрь 07 15:29)
Третий диск перезалил на сендспейс с правильным cue.

Юра, пожалуйста. А вот Аррау не могу перезалить, поскольку DVD с ним я потерял. Если найдется, перезалью.


10. Миша   (10 Сентябрь 07 17:17)
Большое спасибо

11. Артем   (10 Сентябрь 07 18:39)
Огромное спасибо!!! :)

12. Andrew   (20 Сентябрь 07 20:58)
Большое спасибо!
Тем, кто скачал, рекомендую преобразовать APE в WAV и почистить слегка файлы (кое-где есть цифровые щелчки, т. н. glitches). EAC в этом плане - хорошее подспорье. Если не грузится cue-sheet к 6-му диску, откройте cue-sheet в текстовом редакторе и убейте все строчки, начинающиеся с INDEX 00.
Успехов

13. Женя (classical)   (21 Сентябрь 07 12:54)
Эндрю, спасибо за совет.
Вы, наверное, все это уже проделали? Можете ли Вы еще и залить результат на наш платный сендспейс? Ссылку могу кинуть по электронной почте или еще как-то.
За это было бы БОЛЬШОЕ спасибо. :)

14. Andrew   (21 Сентябрь 07 14:28)
Женя, после записи я все файлы стер.
Впрочем, не вижу ничего сложного в том, чтобы любой страждущий это сделал в ExactAudioCopy. Команда "Аудиоредактор (Process WAV)" - выбираем требуемый файл, затем в меню "Правка (Edit)": "Выделить все (Select All)", после чего в "Обработка выделенного": "Убрать glitch-щелчки". Также рекомендую во всех записях, оцифрованных до 2000 г., корректировать DC-смещение (т. е. центровать звуковую синусоиду относительно нуля). Сохраняем результаты и наслаждаемся.
Впрочем, я все это делал несколько иначе - в Adobe Audition, который советовать не буду - программа сложная.

15. Irina (trapez)   (28 Сентябрь 07 17:49)
Женя,вылезает какая-то ошибка в CUE к 6-CD- и при разбиении в EAC на треки, и при записи образа.Появляется надпись,что в образе имеется ссылка на п.10.00.13, который находится за пределами чего-то...и файл образа меньше,чем нужно. Посмотрите, пожалуйста!

16. Женя (classical)   (28 Сентябрь 07 17:58)
Тут Эндрю об этом уже писал, как исправить - см. комментарий №12.
Как-нибудь перезалью правильный вариант.

17. Ирина   (28 Сентябрь 07 21:06)
Женя, спасибо,попробую,может,получится. А вообще-огромное спасибо за сонаты!!! Кстати, давно, вроде бы в 70-е г.г. были изданы все сонаты на виниле в исполнении Рихтера.Может быть кто-то оцифровал?

18. Irina (trapez)   (01 Октябрь 07 13:47)
Женя,не знаю,как у других,а у меня редактирование результата не дало (в смысле 6-го CD).CUE неверный, проигрывание идет через трек (длительности не те,что надо).Очень жаль,что в таком великолепном постинге такой сбой. Пожалуйста, выложите правильный CUE, можно в виде текста, как Вы привели 3-ий.
Очень жду!!!! Ирина
Может быть у Вас есть адрес Andrew, возможно, он поможет?

19. Женя (classical)   (01 Октябрь 07 14:46)
Хорошо. Поздно вечером выложу.

20. Женя (classical)   (02 Октябрь 07 12:57)
PERFORMER "Schnabel, Ludwig van Beethoven - Artur Schnabel"
TITLE "Beethoven Piano Sonatas, Disc 6"
FILE "CDImage CD6.ape" WAVE
TRACK 01 AUDIO
TITLE "Sonata No 21 in C major, Op 53 'Waldstein' I Allegro con brio"
PERFORMER "Schnabel, Ludwig van Beethoven - Artur Schnabel"
INDEX 01 00:00:00
TRACK 02 AUDIO
TITLE "Sonata No 21 in C major, Op 53 'Waldstein' II Introduzione (Adagio molto) - R..."
PERFORMER "Schnabel, Ludwig van Beethoven - Artur Schnabel"
INDEX 01 10:00:29
TRACK 03 AUDIO
TITLE "Sonata No 22 in F major, Op 54 I In tempo d'un Menuetto"
PERFORMER "Schnabel, Ludwig van Beethoven - Artur Schnabel"
INDEX 01 24:16:04
TRACK 04 AUDIO
TITLE "Sonata No 22 in F major, Op 54 II Allegretto"
PERFORMER "Schnabel, Ludwig van Beethoven - Artur Schnabel"
INDEX 01 29:19:13
TRACK 05 AUDIO
TITLE "Sonata No 23 in F minor, Op 57 'Appassionata' I Allegro assai"
PERFORMER "Schnabel, Ludwig van Beethoven - Artur Schnabel"
INDEX 01 34:46:55
TRACK 06 AUDIO
TITLE "Sonata No 23 in F minor, Op 57 'Appassionata' II Andante con moto, Allegro ma..."
PERFORMER "Schnabel, Ludwig van Beethoven - Artur Schnabel"
INDEX 01 43:48:65
TRACK 07 AUDIO
TITLE "Sonata No 24 in F sharp major, Op 78 I Adagio cantabile - Allegro ma non troppo"
PERFORMER "Schnabel, Ludwig van Beethoven - Artur Schnabel"
INDEX 01 57:04:69
TRACK 08 AUDIO
TITLE "Sonata No 24 in F sharp major, Op 78 II Allegro vivace"
PERFORMER "Schnabel, Ludwig van Beethoven - Artur Schnabel"
INDEX 01 64:12:61
TRACK 09 AUDIO
TITLE "Sonata No 25 in G major, Op 79 I Presto alla tedesca"
PERFORMER "Schnabel, Ludwig van Beethoven - Artur Schnabel"
INDEX 01 67:02:06
TRACK 10 AUDIO
TITLE "Sonata No 25 in G major, Op 79 II Andante, Vivace"
PERFORMER "Schnabel, Ludwig van Beethoven - Artur Schnabel"
INDEX 01 71:00:28

21. Женя (classical)   (02 Октябрь 07 14:36)
6-й диск перезалил

22. Irina (trapez)   (02 Октябрь 07 17:22)
Большое спасибо!!! Теперь все в порядке.
Женя,Вас просили выложить снова сонаты 29-32 в исп. Аррау.
Вот ссылки, можно людям дать скачать:
No.29
http://momupload.com/files/52245/BS_29.rar.html
No.30,31
http://momupload.com/files/52246/BS_30_31.rar.html
No.32
http://momupload.com/files/52242/BS_32.rar.html

23. Женя (classical)   (02 Октябрь 07 17:25)
Ирина, спасибо большое за Аррау!
Сейчас добавлю.

24. Александр (aleks08)   (18 Январь 08 13:19)
Большое спасибо!!! appl appl appl

25. Dmitry Shubin (Dimoncheg)   (04 Март 08 19:56)
ИМХО, Шнабель аццки сливает Аррау и Гилельсу...

26. Женя (classical)   (04 Март 08 22:50)
Ну, у всех разное ИМХО.

Бетховен стульями в князей кидался, т.е. явно не был вялым ителлигентишкой (утрирую) как Аррау. Гилельса не слышал пока.


27. galina   (09 Апрель 08 15:39)
Ирина, скачала по вашей ссылке 32 сонату, в архиве оказалось только две части, а где третья?

28. GELA (nigeve)   (25 Апрель 08 23:09)
Большое спасибо appl

29. alexandr (camakas)   (25 Август 08 22:22)
Большое спасибо!!!

30. dvb   (29 Октябрь 08 22:14)
Субъективно ape файлы сонат Аррау (585 кбит/с) звучат лучше чем аре файлы сонат Шнабеля (295 кбит/c).Трудно сравнивать исполнения.Этот параметр показывает плеер Foobar2000.
Чем он определяется?
Для меня качественнее всего звучит FLAC 750 кбит/c

31. Олег (OlegTheMath)   (10 Май 15 10:45)
Что делать, если ссылка на скачивание не работает?
Качать с другой ссылки:
https://cloud.mail.ru/public/4PqR1HkMQpCu/LvB%20P.S.%20-%20A.S.rar

32. valeria Berlin (valeria)   (10 Май 15 15:59)
Спасибо громаднейшее! hands flowers

Добавлять комментарии могут только зарегистрированные пользователи.
[ Регистрация | Вход ]

Аудио/видеозаписи и литература предоставляются исключительно для ознакомления. После ознакомления они должны быть удалены, иначе, вероятно, Вами будет нарушен закон "об авторском праве и смежных правах".
Помощь тяжело больным детям. Подробнее.
Форма входа








ПОГРУЖЕНИЕ В КЛАССИКУ. Здесь живет бесплатная классическая музыка в mp3 и других форматах.