Погружение в классику
Погружение в классику
RSS
аудио
Меню сайта
Поиск
по заголовкам
по всему сайту
поиск от Google

Из нашего архива
Г.Венявский – Полонез № 1 Ре Мажор, Опус 4. [аудио]
И.С.Бах, скрипичная партита №2 Хилари Хан (ape) [аудио]
Людвиг Ван Бетховен, все сочинения для виолончели и фортепиано, М. Ростропович, С. Рихтер (ape) [аудио]
Календарь новостей
«  Октябрь 2014  »
ПнВтСрЧтПтСбВс
  12345
6789101112
13141516171819
20212223242526
2728293031

Приветствуем Вас, Гость.
Текущая дата: Воскресенье, 20 Октября 19, 01:09
Главная страница » 2014 » Октябрь » 26 » Иегуди Менухин в Москве. Концерт 1945 года в БЗМК.
Иегуди Менухин в Москве. Концерт 1945 года в БЗМК.

Теги: Менухин, скрипка, концерт в Москве 1945

Иегуди Менухин, скрипка

Абрам Макаров, ф-но

Записи концертов в Большом зале Московской консерватории

16 (1) и 17 ноября 1945 года

Без разбивки на треки.

Формат АРЕ, цифра 44 кгц на 16 бит и 96 кгц на 24 бит.

Первая сторона

1.К.Сен-Санс. Интродукция и рондо каприччиозо.

2.Г.Венявский. Скерцо-тарантелла.

3.О.Новачек. Perpetuum mobile из «Концертных каприсов»

4.П.де Сарасате. Цыганские напевы.

Вторая сторона

5.П.Чайковский. Меланхолическая серенада.

6.А.Дворжак – Ф.Крейслер. Славянский танец № 10.

7.Ф.Крейслер. Венский каприс.

8.К.Дебюсси – А.Хартман. Девушка с волосами цвета льна.

9.Б.Барток – З.Секей. Румынские народные танцы.

Ссылка 44 * 16

https://cloud.mail.ru/public/bcbc52364846%2F%D0%9A%D0%BE%D0%BD%D1%86%D0%B5%D1%80%D1%82%20%D0%9C%D0%B5%D0%BD%D1%83%D1%85%D0%B8%D0%BD%D0%B0%20%D0%9C%D0%BE%D1%81%D0%BA%D0%B2%D0%B0%201945%20%D0%B3%D0%BE%D0%B4%2044%20%D0%BD%D0%B0%2016.zip

96*24

Ссылка на файлы CUE, добавленная участником NIK (PANOVNIK):

http://files.mail.ru/E7E034AA1D8B4E4798B0A3C7EB594632



Категория: аудио | Просмотров: 3354 | Добавил(а): Chek
Важно: что делать, если ссылка на скачивание не работает.
Понравился материал?
Ссылка
html (для сайта, блога, ...)
BB (для форума)
Комментарии
Всего комментариев: 11
1. Сильвио (komponist)   (11 Января 13 01:13)
bravo bravo bravo

2. anm (alyosha)   (11 Января 13 02:07)
Большое спасибо! На рутрекере есть CD - http://rutracker.org/forum/viewtopic.php?t=3077114.
Как-то искал запись Румынских танцев Бартока-Секея, и это исполнение понравилось больше других. Вот кто действительно не боялся играть (в самом широком смысле)! Но записи на CD без характерных призвуков пластинки, а они, по-моему, очень пойдут к этому исполнению.

Ссылка на файл .cue от CD, может удастся приладить его к вашей оцифровке:
http://files.mail.ru/1911D779AEFB44618BEE38B80C8B4114

5. Evgen Chekmarev (Chek)   (11 Января 13 12:07)
Честно сказать, никогда не делал такого файла к своим выкладкам. И не знаю как это делать.

6. anm (alyosha)   (11 Января 13 18:03)
Я тоже не очень хорошо в этом разбираюсь, хотя принципы редактирования файлов .cue мне, в общем, известны. Ссылку на .cue дал больше для того, что, возможно, кто-то переделает его под вашу оцифровку и потом поделится.

7. NIK (PANOVNIK)   (12 Января 13 22:25)
Посмотрите здесь: http://rutracker.org/forum/viewtopic.php?t=3371079
я выбрал и советую первый вариант - программа для него там есть: http://rutracker.org/forum/viewtopic.php?t=3400310

Если какие вопросы, то пишите.

3. Дмитрий (Peir)   (11 Января 13 08:27)
Спасибо!

4. Svetlana (Svetlanabukki)   (11 Января 13 10:00)
Спасибо!!!

8. NIK (PANOVNIK)   (15 Марта 13 21:17)
Сделал CUE - http://files.mail.ru/E7E034AA1D8B4E4798B0A3C7EB594632

для 44&16:
FILE "MenuhinMoscou1945_44&16-1.ape" WAVE
TRACK 01 AUDIO
TITLE "Saint-Saens - Introduction and Rondo Capriccioso, Op. 28"
INDEX 01 00:00:00
TRACK 02 AUDIO
TITLE "Wieniawski - Scherzo-Tarantelle, Op. 16"
INDEX 01 08:35:41
TRACK 03 AUDIO
TITLE "Novacek - Perpetuum mobile, Op.5 No.4"
INDEX 01 12:39:70
TRACK 04 AUDIO
TITLE "Sarasate - Zigeunerweisen, Op. 20"
INDEX 01 15:14:02
FILE "MenuhinMoscou1945_44&16-2.ape" WAVE
TRACK 05 AUDIO
TITLE "Tchaikovsky - Serenade Melancolique, Op. 26"
INDEX 01 00:00:00
TRACK 06 AUDIO
TITLE "Dvorak-Kreisler - Slavonic Dance, Op.72 No.2"
INDEX 01 08:06:48
TRACK 07 AUDIO
TITLE "Kreisler - Caprice Viennois, Op. 2"
INDEX 01 12:26:44
TRACK 08 AUDIO
TITLE "Debussy-Hartmann - La fille aux cheveux de lin"
INDEX 01 16:15:61
TRACK 09 AUDIO
TITLE "Bartok-Szekely - Romanian Folk Dances"
INDEX 01 18:41:35

для 96&24:
FILE "MenuhinMoscou1945_96&24-1.ape" WAVE
TRACK 01 AUDIO
TITLE "Saint-Saens - Introduction and Rondo Capriccioso, Op. 28"
INDEX 01 00:00:00
TRACK 02 AUDIO
TITLE "Wieniawski - Scherzo-Tarantelle, Op. 16"
INDEX 01 08:35:41
TRACK 03 AUDIO
TITLE "Novacek - Perpetuum mobile, Op.5 No.4"
INDEX 01 12:39:70
TRACK 04 AUDIO
TITLE "Sarasate - Zigeunerweisen, Op. 20"
INDEX 01 15:14:02
FILE "MenuhinMoscou1945_96&24-2.ape" WAVE
TRACK 05 AUDIO
TITLE "Tchaikovsky - Serenade Melancolique, Op. 26"
INDEX 01 00:00:00
TRACK 06 AUDIO
TITLE "Dvorak-Kreisler - Slavonic Dance, Op.72 No.2"
INDEX 01 08:06:48
TRACK 07 AUDIO
TITLE "Kreisler - Caprice Viennois, Op. 2"
INDEX 01 12:26:44
TRACK 08 AUDIO
TITLE "Debussy-Hartmann - La fille aux cheveux de lin"
INDEX 01 16:15:61
TRACK 09 AUDIO
TITLE "Bartok-Szekely - Romanian Folk Dances"
INDEX 01 18:41:35

10. anm (alyosha)   (31 Марта 13 18:29)
Николай, большое спасибо!

9. Татьяна (татьяна)   (16 Марта 13 03:03)
Спасибо! appl

11. Дима Петров (Damian8673)   (26 Октября 14 11:52)
bravo bravo bravo

Добавлять комментарии могут только зарегистрированные пользователи.
[ Регистрация | Вход ]

Аудио/видеозаписи и литература предоставляются исключительно для ознакомления. После ознакомления они должны быть удалены, иначе, вероятно, Вами будет нарушен закон "об авторском праве и смежных правах".
Помощь тяжело больным детям. Подробнее.
Форма входа








ПОГРУЖЕНИЕ В КЛАССИКУ. Здесь живет бесплатная классическая музыка в mp3 и других форматах.