Погружение в классику
Погружение в классику
RSS
аудио
Меню сайта
Поиск
по заголовкам
по всему сайту
поиск от Google

Из нашего архива
Филипп Энтремон. К.Сен-Санс, Фортепианный концерт №4, 2 часть [видео]
Святослав Рихтер, The Master, том 4 - Бетховен (ape) [аудио]
Н.А. Римский-Корсаков, "Шехеразада", А.П. Бородин "Половецкие пляски". Герберт фон Караян. (APE) [аудио]
Календарь новостей
«  Октябрь 2014  »
ПнВтСрЧтПтСбВс
  12345
6789101112
13141516171819
20212223242526
2728293031

Приветствуем Вас, Гость.
Текущая дата: Понедельник, 28 Ноября 22, 20:27
Главная страница » 2014 » Октябрь » 24 » Гуно - Фауст - Розвенге, Кандль, Шлуснус - 1931
Гуно - Фауст - Розвенге, Кандль, Шлуснус - 1931
Шарль Гуно
Фауст


Mephistophelel - Eduard Kandl
Margarethe  - H. von Debitzka
Faust  - Helge Rosvaenge
Valentin - Heinrich Schlusnus
Siebel  - Hedwig Jungkurth
Marthe - Marie Schulz-Dornburg
Wagner - Waldemar Henke


Mitglieder chor und orchesters der Staatsoper Berlin
Дирижёр - Hermann Weigert
1931

Продолжительность - 50 минут, трансфер с LP, качество очень хорошее.
формат - flac
размер - 208 мб
https://yadi.sk/d/O8HOGJi3cFVjb

Категория: аудио | Просмотров: 2304 | Добавил(а): Rienzi
Важно: что делать, если ссылка на скачивание не работает.
Понравился материал?
Ссылка
html (для сайта, блога, ...)
BB (для форума)
Комментарии
Всего комментариев: 8
1. Геннадий Веденский (Pantodon)   (25 Октября 14 01:53) [Материал]
Спасибо!

2. Сильвио (komponist)   (25 Октября 14 03:40) [Материал]
O dear God! Какие люди!! Огромное спасибо!
bravo bravo bravo bravo

3. Виктор Ст (Rienzi)   (27 Октября 14 15:35) [Материал]
Не за что.

4. Сергей (nibelung)   (27 Октября 14 23:03) [Материал]
По-моему, не встречал. Неимоверная редкость? Очень осмысленное, театральное исполнение - все голоса индивидуальны, подчёркнуто-характерны. Шлуснус выделяется, хоть и в маленькой роли. Розвенге прекрасен. appl :appl: appl :appl: appl

5. Сергей (nibelung)   (27 Октября 14 23:35) [Материал]
Ещё раз благодарю. Включив, не смог оторваться... Но где же это лежало столько лет под спудом? Почему Preiser не издал? Не понимаю...

6. lzp (lzp3881)   (09 Ноября 14 03:39) [Материал]
TITLE "Faust"
PERFORMER "Rosvaenge-Kandl-Debitzka-Schlusnus-Weigert-Berlin-1931"
FILE "Faust-Rosvaenge-Kandl-Debitzka-Schlusnus-Weigert-Berlin-1931.flac" WAVE
TRACK 01 AUDIO
TITLE "1 Akt: Nichts! Umsonst befragte ich"
INDEX 01 00:00:00
TRACK 02 AUDIO
TITLE "Da bin ich! Me boici!"
INDEX 01 01:20:00
TRACK 03 AUDIO
TITLE "2 Akt: Wein und Bier und Bier und Wein"
INDEX 01 04:59:00
TRACK 04 AUDIO
TITLE "Da kommt Valentin"
INDEX 01 06:30:00
TRACK 05 AUDIO
TITLE "Da ich nun verlassen soll... Avant de quitter ces lieux..."
INDEX 01 07:00:00
TRACK 06 AUDIO
TITLE "Der Rat..."
INDEX 01 08:13:00
TRACK 07 AUDIO
TITLE "Der Rat..."
INDEX 01 08:27:00
TRACK 08 AUDIO
TITLE "Ja, das Gold regiert die Welt"
INDEX 01 08:48:00
TRACK 09 AUDIO
TITLE "Wir danken fur dein Lied! Merci de ta chanson!"
INDEX 01 09:42:00
TRACK 10 AUDIO
TITLE "Auf frohlich Wiedersehn, meine Freunde. Nous nous retrouverons, mes amis."
INDEX 01 11:43:00
TRACK 11 AUDIO
TITLE "Mein schones Fralein, darf ich's wagen. Ne permettrez-vous pas."
INDEX 01 12:42:50
TRACK 12 AUDIO
TITLE "3 Akt: Blumlein traut, sprecht fur mich. Faites-lui mes aveux."
INDEX 01 14:49:00
TRACK 13 AUDIO
TITLE "Welch' unbekannter Zauber fasst mich an! Que trouble inconnu me penetre!"
INDEX 01 16:21:00
TRACK 14 AUDIO
TITLE "Gegrusst sei mir, o heil'ge Statte! Salut! Demeure chaste et pure!"
INDEX 01 17:27:30
TRACK 15 AUDIO
TITLE "Von dannen! Sie naht!.. Alerte! La voila!.."
INDEX 01 19:27:00
TRACK 16 AUDIO
TITLE "Ich gab' was drum, wenn ich nur wusst. Je voudrais bien savoir."
INDEX 01 20:00:00
TRACK 17 AUDIO
TITLE "Es war ein Konig in Thule. Il etait un roi de Thule."
INDEX 01 20:37:50
TRACK 18 AUDIO
TITLE "Air des bijoux."
INDEX 01 22:35:00
TRACK 19 AUDIO
TITLE "3 Akt: Margarethe, was seh' ich. Que vois-je ei."
INDEX 01 24:47:50
TRACK 20 AUDIO
TITLE "Bitte, o nehmt meinem Arm! Ne m'apportez-vous rien de lui?"
INDEX 01 25:59:00
TRACK 23 AUDIO
TITLE "O Mondenschein, der uns umhullt. O nuit d'amour!... Ciel radieux!..."
INDEX 01 31:39:00
TRACK 24 AUDIO
TITLE "4 Akt: O Herr, so lasse hier niederknien. Seigneur, daignez permettre."
INDEX 01 34:47:00
TRACK 25 AUDIO
TITLE "Nun nicht langer zogert hier. Qu'attendez-vous encore?"
INDEX 01 40:47:75
TRACK 26 AUDIO
TITLE "Scheinst zu schlafen Du im Stubchen. Vous qui faites l'endormie."
INDEX 01 41:05:00
TRACK 27 AUDIO
TITLE "Ihr sollt mir Rede stehen. Que voulez-vous, messieurs?"
INDEX 01 42:12:00
TRACK 28 AUDIO
TITLE "5 Akt"
INDEX 01 44:40:50
TRACK 29 AUDIO
TITLE "Auf, eilet! Schon naht der Morgen! Alerte! Alerte! Ou vous etes perdus!"
INDEX 01 47:16:00

7. Сильвио (komponist)   (22 Января 15 18:05) [Материал]
Dear Lzp, thanks for the cue-file! Your labors are highly appreciated! appl

8. Arthur Gray (ArthurGray5)   (25 Ноября 15 16:43) [Материал]
Большое спасибо!!! appl appl appl

Добавлять комментарии могут только зарегистрированные пользователи.
[ Регистрация | Вход ]

Аудио/видеозаписи и литература предоставляются исключительно для ознакомления. После ознакомления они должны быть удалены, иначе, вероятно, Вами будет нарушен закон "об авторском праве и смежных правах".
Помощь тяжело больным детям. Подробнее.
Форма входа








ПОГРУЖЕНИЕ В КЛАССИКУ. Здесь живет бесплатная классическая музыка в mp3 и других форматах.