Погружение в классику
Погружение в классику
RSS
аудио
Меню сайта
Поиск
по заголовкам
по всему сайту
поиск от Google
поиск от Яndex

Из нашего архива
Григорий Зайцев "Интермеццо" для фортепиано соч. 2005г. [аудио]
паваротти Luciano Pavarotti - Pavarotti Forever (2007) [аудио]
Доницетти: Анна Болейн - Сазерленд, Хэдли, Рэми, Ментцер - Бонинг (1987) [аудио]
Календарь новостей
«  Май 2014  »
ПнВтСрЧтПтСбВс
   1234
567891011
12131415161718
19202122232425
262728293031

Приветствуем Вас, Гость.
Текущая дата: Вторник, 06 Декабрь 16, 03:49
Главная страница » 2014 » Май » 18 » МИШЕЛЬ ОКЛЕР - ДЕБЮССИ,ЧАЙКОВСКИЙ,РАВЕЛЬ | ЙОХАННА МАРЦИ - БАХ
МИШЕЛЬ ОКЛЕР - ДЕБЮССИ,ЧАЙКОВСКИЙ,РАВЕЛЬ | ЙОХАННА МАРЦИ - БАХ
MARTZY | Michele Auclair

MARTZY ~ BACH 
BACH - Sonata No.1 in G minor, BWV 1001/Partita No.3 in E major, BWV 1006
1955 | 1962
ЗАПИСИ НЕ С СЕТА МАРЦИ ОТ ИЗВЕСТНОГО ЛЕЙБЛА !!!

 

Michele Auclair
Ravel & Debussy Sonate pour Violon et Piano
1957
TSHAIKOVSKY ~ Violin Concerto in D major
THE AUSTRIAN SYMPHONY ORCHESTRA/KURT WOSS, Conductor

 
Категория: аудио | Просмотров: 1104 | Добавил(а): AntuanFlemondon
Важно: что делать, если ссылка на скачивание не работает.
Понравился материал?
Ссылка
html (для сайта, блога, ...)
BB (для форума)
Комментарии
Всего комментариев: 13
1. Валентин (valuy7780)   (19 Май 14 00:02)
Бессконечное Вам спасибо!!! А ведь как играет Оклер?!! :D Мне она сильно запала в душу еще с поста Ристенпарта...

2. Татьяна (татьяна)   (19 Май 14 03:40)
Спасибо! appl
Французских сонат у нас еще не было.

3. Taras V. (little_listener)   (19 Май 14 12:43)
Куе для диска Марци. В конце добавил жигу (10-й трек), которой в сканах не было. На всякий случай проверьте.

REM DISCID 6908830A
REM COMMENT "ExactAudioCopy v1.0b3"
PERFORMER "Johanna Martzy"
TITLE "Johanna Martzy Plays J.S. Bach"
FILE "MARTZY BACH.wav" WAVE
TRACK 01 AUDIO
TITLE "Sonata No.1 in G minor, BWV 1001 - I.Adagio"
PERFORMER "Johanna Martzy"
INDEX 01 00:00:00
TRACK 02 AUDIO
TITLE "Sonata No.1 in G minor, BWV 1001 - II.Fuga"
PERFORMER "Johanna Martzy"
INDEX 01 04:25:60
TRACK 03 AUDIO
TITLE "Sonata No.1 in G minor, BWV 1001 - III.Sicilliano"
PERFORMER "Johanna Martzy"
INDEX 01 09:58:72
TRACK 04 AUDIO
TITLE "Sonata No.1 in G minor, BWV 1001 - IV.Presto"
PERFORMER "Johanna Martzy"
INDEX 01 13:49:30
TRACK 05 AUDIO
TITLE "Partita No.3 in E major, BWV 1006 - I.Preludio"
PERFORMER "Johanna Martzy"
INDEX 00 16:41:60
INDEX 01 16:45:10
TRACK 06 AUDIO
TITLE "Partita No.3 in E major, BWV 1006 - II.Louré"
PERFORMER "Johanna Martzy"
INDEX 01 20:41:70
TRACK 07 AUDIO
TITLE "Partita No.3 in E major, BWV 1006 - III.Gavotte & Rondo"
PERFORMER "Johanna Martzy"
INDEX 01 25:09:57
TRACK 08 AUDIO
TITLE "Partita No.3 in E major, BWV 1006 - IV.Menuetto I & II"
PERFORMER "Johanna Martzy"
INDEX 01 28:20:65
TRACK 09 AUDIO
TITLE "Partita No.3 in E major, BWV 1006 - V.Bourée"
PERFORMER "Johanna Martzy"
INDEX 01 32:47:67
TRACK 10 AUDIO
TITLE "Partita No.3 in E major, BWV 1006 - VI.Gigue"
PERFORMER "Johanna Martzy"
INDEX 01 34:28:45

4. Taras V. (little_listener)   (19 Май 14 12:56)
Оклер - концерт Чайковского:

REM DISCID 1106FB03
REM COMMENT "ExactAudioCopy v0.99pb5"
PERFORMER "Michele Auclair, The Austrian SO, Kurt Wöss"
TITLE "Tchaikovsky - Violin Concerto in D major, op.35"
FILE "CDImage.flac" WAVE
TRACK 01 AUDIO
TITLE "I.Allegro moderato - Moderato assai"
PERFORMER "Michele Auclair, The Austrian SO, Kurt Wöss"
INDEX 01 00:00:00
TRACK 02 AUDIO
TITLE "II.Canzonetta: Andante"
PERFORMER "Michele Auclair, The Austrian SO, Kurt Wöss"
INDEX 01 17:20:10
TRACK 03 AUDIO
TITLE "III.Finale: Allegro vivacissimo"
PERFORMER "Michele Auclair, The Austrian SO, Kurt Wöss"
INDEX 00 23:39:26
INDEX 01 23:39:28

5. Taras V. (little_listener)   (19 Май 14 13:45)
Дебюсси и Равель. Образ диска следует переименовать в CDImage.

REM DISCID C00CCC0E
REM COMMENT "ExactAudioCopy v1.0b3"
PERFORMER "Various Artists"
TITLE "Debussy & Ravel - Chamber Works"
FILE "CDImage.flac" WAVE
TRACK 01 AUDIO
TITLE "Debussy - Violin Sonata in G minor - I.Allegro vivo"
PERFORMER "Michele Auclair, Jacqueline Bonneau"
INDEX 01 00:00:00
TRACK 02 AUDIO
TITLE "Debussy - Violin Sonata in G minor - II.Intermède: Fantasque et léger"
PERFORMER "Michele Auclair, Jacqueline Bonneau"
INDEX 01 04:14:39
TRACK 03 AUDIO
TITLE "Debussy - Violin Sonata in G minor - III.Finale: Très animé"
PERFORMER "Michele Auclair, Jacqueline Bonneau"
INDEX 01 08:19:57
TRACK 04 AUDIO
TITLE "Ravel - Violin Sonata No.2 - I.Allegretto"
PERFORMER "Michele Auclair, Jacqueline Bonneau"
INDEX 01 12:22:12
TRACK 05 AUDIO
TITLE "Ravel - Violin Sonata No.2 - II.Blues. Moderato"
PERFORMER "Michele Auclair, Jacqueline Bonneau"
INDEX 01 19:20:35
TRACK 06 AUDIO
TITLE "Ravel - Violin Sonata No.2 - III.Perpetuum mobile. Allegro"
PERFORMER "Michele Auclair, Jacqueline Bonneau"
INDEX 01 24:40:58
TRACK 07 AUDIO
TITLE "Ravel - Ma mère l'oye - I.Pavane de la Belle au bois dormant"
PERFORMER "Jacqueline Bonneau, Genevieve Joy"
INDEX 01 28:16:62
TRACK 08 AUDIO
TITLE "Ravel - Ma mère l'oye - II.Petit Poucet"
PERFORMER "Jacqueline Bonneau, Genevieve Joy"
INDEX 01 29:40:67
TRACK 09 AUDIO
TITLE "Ravel - Ma mère l'oye - III.Laideronnette, impératrice des pagodes"
PERFORMER "Jacqueline Bonneau, Genevieve Joy"
INDEX 01 32:33:14
TRACK 10 AUDIO
TITLE "Ravel - Ma mère l'oye - IV.Les entretiens de la belle et de la bête"
PERFORMER "Jacqueline Bonneau, Genevieve Joy"
INDEX 01 35:52:65
TRACK 11 AUDIO
TITLE "Ravel - Ma mère l'oye - V.Le jardin féerique"
PERFORMER "Jacqueline Bonneau, Genevieve Joy"
INDEX 01 40:01:28
TRACK 12 AUDIO
TITLE "Ravel - Sonatine - I.Modéré"
PERFORMER "Marie-Therese Fourneau"
INDEX 01 43:01:39
TRACK 13 AUDIO
TITLE "Ravel - Sonatine - II.Mouvement de menuet"
PERFORMER "Marie-Therese Fourneau"
INDEX 01 47:12:67
TRACK 14 AUDIO
TITLE "Ravel - Sonatine - III.Animé"
PERFORMER "Marie-Therese Fourneau"
INDEX 01 50:53:58

6. Татьяна (татьяна)   (19 Май 14 13:53)
Спасибо, Тарас!

7. alexey semlyanoy (terrestro)   (19 Май 14 15:07)
А кто аффтар сего полотна? Плепорции, однако, сомнительны! - одна половина от одной натурщицы, а другая - от другой!
Такое, как высказалась бы Земля, складывается (из пазлов?) впечатление, товарищи!!! %)

8. Taras V. (little_listener)   (19 Май 14 16:28)
"На самом деле перед художником всегда стоит задача создания нужного художественного образа, а вовсе не рабского копирования натуры. <...> При этом он, естественно, прилагает особые усилия, чтобы достойно передать то, что он считает важным, стремится к тому, чтобы второстепенное не мешало этому главному, и всегда готов пожертвовать точностью передачи второстепенного ради главного."
Академик Б. Раушенбах

9. alexey semlyanoy (terrestro)   (19 Май 14 22:34)
Pardon! Тарас, как я понимаю, если следовать рекомендации (мнению) Раушенбаха ("...достойно передать то, что он считает важным..."), то тут вот художник посчитал наиболее важным - женскую попу?! Нет, я не против, но а другие прелести???!!!

11. Taras V. (little_listener)   (19 Май 14 23:35)
scratch shock pardon

10. josif spartak (josif)   (19 Май 14 23:28)
Если другие прелести, то тогда попу не видно будет. Она и так вся перекрутилась. Или 3D надо.
Это Luis Ricardo Falero (1851 – December 7, 1896).
Спасибо AntuanFlemondon за изысканную Мишель!

12. alex sidmak (sidmak)   (20 Май 14 00:35)
А я МИШЕЛЬ ОКЛЕР взял в блоге.
Там тоже дядька со спины!
Но в котелке и даже с тростью.
И это факт! Удивлены? :)

СПАСИБО!

13. Vlad (vladim)   (22 Май 14 12:40)
Большое Вам спасибо!
И за выложенные файлы и за Cloud.mail - скачивать с него одно удовольствие: удобно и фантастически быстро, СПАСИБО!
appl

Добавлять комментарии могут только зарегистрированные пользователи.
[ Регистрация | Вход ]

Аудио/видеозаписи и литература предоставляются исключительно для ознакомления. После ознакомления они должны быть удалены, иначе, вероятно, Вами будет нарушен закон "об авторском праве и смежных правах".
Помощь тяжело больным детям. Подробнее.
Форма входа








ПОГРУЖЕНИЕ В КЛАССИКУ. Здесь живет бесплатная классическая музыка в mp3 и других форматах.