Погружение в классику
Погружение в классику
RSS
аудио
Меню сайта
Поиск
по заголовкам
по всему сайту
поиск от Google
поиск от Яndex

Из нашего архива
Святослав Рихтер, The Master, том 2 - Моцарт (записи 1966, 1989 и 1991 гг.) [аудио]
Антонио Вивальди - Пять скрипичных концертов, Иегуди Менухин (FLAC) [аудио]
Максим Михайлов. Арии из опер. Русские народные песни. [аудио]
Календарь новостей
«  Май 2014  »
ПнВтСрЧтПтСбВс
   1234
567891011
12131415161718
19202122232425
262728293031

Приветствуем Вас, Гость.
Текущая дата: Пятница, 09 Декабрь 16, 20:24
Главная страница » 2014 » Май » 16 » ХАЙНЦ РЁГНЕР - БРАМС (Комплект симфоний) & ШЁНБЕРГ/Записи 1978-1989гг. - 4 CD
ХАЙНЦ РЁГНЕР - БРАМС (Комплект симфоний) & ШЁНБЕРГ/Записи 1978-1989гг. - 4 CD
Heinz Rogner - Brahms & Schonberg - 4 CD

Brahms:
Symphonie Nr. 1 c-moll, Op. 68
Symphonie Nr. 2 D-dur, Op. 73
Symphonie Nr. 3 F-dur, Op. 90
Symphonie Nr. 4 e-moll, Op. 98
Rundfunk-Sinfonieorchester Berlin
1978-1987

Schonberg
Variationen Op.31
Kammersinfonie Nr.1 E-dur, Op.9
Verklarte Nacht Op.4
Stucke fur Orchester Nr.1-5, Op.16
Kammersinfonie Nr.2 es-moll, Op.38
Pelleas und Melisande, Op.5
Rundfunk-Sinfonieorchester Berlin/Rundfunk-Sinfonieorchester Leipzig
1980-1989

 
Категория: аудио | Просмотров: 958 | Добавил(а): AntuanFlemondon
Важно: что делать, если ссылка на скачивание не работает.
Понравился материал?
Ссылка
html (для сайта, блога, ...)
BB (для форума)
Комментарии
Всего комментариев: 10
1. Сильвио (komponist)   (16 Май 14 15:21)
Большущее спасибо, особливо за шёнберговские записи (брамсовским комплектам я потерял счёт...)!
rose rose rose

ЗЫ. Г-жа А., у Вас опечатка в описании диска Кулленкампфа - "Kreiler" вместо "Kreisler". :)

2. Taras V. (little_listener)   (16 Май 14 15:42)
... и Schönberg
Спасибо, как гритца, за неоромантиков с додекафонистами ;) Немодно, да чего уж там (махает рукой).

3. Taras V. (little_listener)   (16 Май 14 16:29)
Офтоп.

В Куленкампфе (из Вашего блога) поправил кракозябры, если кому интересно. Названия треков прописывать поленился. Тот WAV, кстати, мой Фубар не воспроизводит. АИМП справился.

REM DISCID D210A10E
REM COMMENT "ExactAudioCopy v1.0b3"
PERFORMER "Georg Kulenkampff"
TITLE "Georg Kulenkampff in Chamder Music"
FILE "KULENKAMPFF GRIEG FRANCK SHORT PIECES.wav" WAVE
TRACK 01 AUDIO
TITLE "Track01"
PERFORMER "Georg Kulenkampff"
INDEX 01 00:00:00
TRACK 02 AUDIO
TITLE "Track02"
PERFORMER "Georg Kulenkampff"
INDEX 00 09:14:42
INDEX 01 09:15:60
TRACK 03 AUDIO
TITLE "Track03"
PERFORMER "Georg Kulenkampff"
INDEX 00 15:36:00
INDEX 01 15:39:12
TRACK 04 AUDIO
TITLE "Track04"
PERFORMER "Georg Kulenkampff"
INDEX 00 22:56:72
INDEX 01 23:10:00
TRACK 05 AUDIO
TITLE "Track05"
PERFORMER "Georg Kulenkampff"
INDEX 00 29:45:60
INDEX 01 29:50:00
TRACK 06 AUDIO
TITLE "Track06"
PERFORMER "Georg Kulenkampff"
INDEX 00 37:56:70
INDEX 01 38:01:65
TRACK 07 AUDIO
TITLE "Track07"
PERFORMER "Georg Kulenkampff"
INDEX 00 45:28:20
INDEX 01 45:32:67
TRACK 08 AUDIO
TITLE "Track08"
PERFORMER "Georg Kulenkampff"
INDEX 00 52:08:67
INDEX 01 52:22:00
TRACK 09 AUDIO
TITLE "Track09"
PERFORMER "Georg Kulenkampff"
INDEX 00 56:01:00
INDEX 01 56:06:00
TRACK 10 AUDIO
TITLE "Track10"
PERFORMER "Georg Kulenkampff"
INDEX 00 58:33:72
INDEX 01 58:39:00
TRACK 11 AUDIO
TITLE "Track11"
PERFORMER "Georg Kulenkampff"
INDEX 00 59:58:60
INDEX 01 60:04:00
TRACK 12 AUDIO
TITLE "Track12"
PERFORMER "Georg Kulenkampff"
INDEX 00 61:44:70
INDEX 01 61:50:00
TRACK 13 AUDIO
TITLE "Track13"
PERFORMER "Georg Kulenkampff"
INDEX 00 64:38:47
INDEX 01 64:43:35
TRACK 14 AUDIO
TITLE "Track14"
PERFORMER "Georg Kulenkampff"
INDEX 00 67:49:20
INDEX 01 67:54:10

4. Сергей (nibelung)   (16 Май 14 20:29)
С ума сойти! :'(

5. Сергей (nibelung)   (16 Май 14 20:58)
Поражает незамысловатый и экономный дизайн японских дисков. Одно содержание - никакой воды!

6. alex sidmak (sidmak)   (16 Май 14 21:02)
Две цитаты:

1. "каждый день по новому посту"
2. "Если человек тебе сделал ЗЛО - ты дай ему конфетку, он тебе ЗЛО - ты ему конфетку… И так до тех пор, пока у этой твари не разовьётся сахарный диабет."

scratch

СПАСИБО!

7. Валентин (valuy7780)   (16 Май 14 21:12)
Какое сегодня великолепие и праздник духа! booze bravo bravo bravo bravo

8. Глеб Ченцов (G_L_E_B)   (19 Май 14 00:10)
Эээ... а ссылку на ваш блог можно?

9. Глеб Ченцов (G_L_E_B)   (19 Май 14 01:27)
Спасибо!

10. Сергей (nibelung)   (19 Май 14 09:29)
Трек-лист нашёлся здесь:
http://www.allmusic.com/album/release/heinz-r%C3%B6gner-dirigiert-brahms-sch%C3%B6nberg-mr0002084676

Добавлять комментарии могут только зарегистрированные пользователи.
[ Регистрация | Вход ]

Аудио/видеозаписи и литература предоставляются исключительно для ознакомления. После ознакомления они должны быть удалены, иначе, вероятно, Вами будет нарушен закон "об авторском праве и смежных правах".
Помощь тяжело больным детям. Подробнее.
Форма входа








ПОГРУЖЕНИЕ В КЛАССИКУ. Здесь живет бесплатная классическая музыка в mp3 и других форматах.