Погружение в классику
Погружение в классику
RSS
аудио
Меню сайта
Поиск
по заголовкам
по всему сайту
поиск от Google

Из нашего архива
Н.А. Римский-Корсаков, "Шехеразада", А.П. Бородин "Половецкие пляски". Герберт фон Караян. (APE) [аудио]
Софроницкий играет Скрябина: Записи с концертов 1959, 1960г, диск 1-й [аудио]
Ф.Шопен – 4 Фортепианных Скерцо. Иво Погорелич. [аудио]
Календарь новостей
«  Июнь 2013  »
ПнВтСрЧтПтСбВс
     12
3456789
10111213141516
17181920212223
24252627282930

Приветствуем Вас, Гость.
Текущая дата: Среда, 23 Август 17, 03:25
Главная страница » 2013 » Июнь » 30 » Из сокровищницы мирового исполнительского искусства. А.Гольденвейзер-фортепиано.
Из сокровищницы мирового исполнительского искусства. А.Гольденвейзер-фортепиано.

Теги: Рахманинов, Шуберт, Чайковский, Аренский, Бетховен, Шопен, Скрябин, гольденвейзер

В этом диске фортепианные произведения зарубежных (Бетховен,Шуберт,Шопен) и русских композиторов (Чайковский,Аренский,Рахманинов,Скрябин) в исполнении А.Гольденвейзера


Л. В. Бетховен
01. Шесть вариаций ре мажор, соч. 76
Ф. Шуберт
02. Музыкальный момент ми минор, соч. 94 No 4
Ф. Шопен
03. Этюд ми мажор, соч. 10 No 3
04. Этюд до-диез минор, соч. 10 No 4
05. Этюд ля-бемоль мажор, соч. 72 No 3
П. Чайковский
06. Ноктюрн фа мажор, соч. 10 No 1
07. Ноктюрн до диез минор, соч. 19 No 4
А. Аренский
08. Эскиз фа мажор, соч. 24 No 1
09. Баркарола, соч. 36 No 11
С. Рахманинов
10. Мелодия ми мажор, соч. 3 No 3
А. Скрябин
11. Прелюдия ми мажор, соч. 15 No 4
12. Прелюдия до-диез минор, соч. 15 No 5
13. Прелюдия ми-бемоль минор, соч. 16 No 4

Архивные записи 1947 - 1957 гг.

Формат:АРЕ
Один трек АРЕ
Непрофессиональная(любительская) оцифровка
Размер:196МБ
Время звучания: 42.42

Ссылка на скачивание:http://yadi.sk/d/8iWakVpX6K-0g
Категория: аудио | Просмотров: 1467 | Добавил(а): Collage
Важно: что делать, если ссылка на скачивание не работает.
Понравился материал?
Ссылка
html (для сайта, блога, ...)
BB (для форума)
Комментарии
Всего комментариев: 4
1. Валентин (valuy7780)   (30 Июнь 13 13:25)
bravo bravo bravo

2. NIK (PANOVNIK)   (30 Июнь 13 23:20)
нет CUE

Это не отсюда - http://rutracker.org/forum/viewtopic.php?t=3511953

3. NIK (PANOVNIK)   (01 Июль 13 20:49)
Так не ответили - Почему нет CUE ???

4. NIK (PANOVNIK)   (01 Июль 13 23:40)
CUE:

REM GENRE Classical/Piano
REM DATE 1980
PERFORMER "Alexander Goldenweiser"
TITLE "Beethoven, Schubert, Chopin, Tchaikovsky, Arensky, Rachmaninov & Scriabin "
FILE "Alexander Goldenweiser (piano) - 1980 (mono).ape" WAVE
TRACK 01 AUDIO
TITLE "Beethoven: Six variations in D Major, Op. 76"
INDEX 01 00:00:00
TRACK 02 AUDIO
TITLE "Schubert: Moment Musical in E minor, Op. 94 No 4"
INDEX 01 06:28:68
TRACK 03 AUDIO
TITLE "Chopin: Etude in E major, Op. 10 No 3"
INDEX 01 10:45:21
TRACK 04 AUDIO
TITLE "Chopin: Etude in C sharp minor, Op. 10 No 4"
INDEX 01 15:00:03
TRACK 05 AUDIO
TITLE "Chopin: Etude in A flat major, Op. 72 No 3"
INDEX 01 19:23:72
TRACK 06 AUDIO
TITLE "Tchaikovsky: Nocturne in F Major, Op. 10 No 1"
INDEX 01 21:23:48
TRACK 07 AUDIO
TITLE "Tchaikovsky: Nocturne in C sharp minor, Op. 19 No 4"
INDEX 01 25:40:73
TRACK 08 AUDIO
TITLE "Arensky: Sketch in F Major, Op. 24 No 1"
INDEX 01 29:15:26
TRACK 09 AUDIO
TITLE "Arensky: Barcarolle, Op. 36 No 11"
INDEX 01 32:44:63
TRACK 10 AUDIO
TITLE "Rachmaninov: Melody in E major, Op. 3 No 3"
INDEX 01 35:03:58
TRACK 11 AUDIO
TITLE "Scriabin: Prelude in E major, Op. 15 No 4"
INDEX 01 39:09:59
TRACK 12 AUDIO
TITLE "Scriabin: Prelude in C sharp minor, Op. 15 No 5"
INDEX 01 40:36:70
TRACK 13 AUDIO
TITLE "Scriabin: Prelude in E flat minor, Op. 16 No 4"
INDEX 01 41:51:20

Добавлять комментарии могут только зарегистрированные пользователи.
[ Регистрация | Вход ]

Аудио/видеозаписи и литература предоставляются исключительно для ознакомления. После ознакомления они должны быть удалены, иначе, вероятно, Вами будет нарушен закон "об авторском праве и смежных правах".
Помощь тяжело больным детям. Подробнее.
Форма входа








ПОГРУЖЕНИЕ В КЛАССИКУ. Здесь живет бесплатная классическая музыка в mp3 и других форматах.