Погружение в классику
Погружение в классику
RSS
аудио
Меню сайта
Поиск
по заголовкам
по всему сайту
поиск от Google

Из нашего архива
И.С.Бах, скрипичная партита №2 Хилари Хан (ape) [аудио]
Д.Д. Шостакович, квартеты №7 и 8, фортепианный квинтет, квартет им. Бородина, Святослав Рихтер (flac) [аудио]
В.А. Моцарт - Концерты для ф-но с оркестром №№ 20-25 (Владимир Ашкенази) [аудио]
Календарь новостей
«  Декабрь 2012  »
ПнВтСрЧтПтСбВс
     12
3456789
10111213141516
17181920212223
24252627282930
31

Приветствуем Вас, Гость.
Текущая дата: Понедельник, 22 Июля 19, 21:13
Главная страница » 2012 » Декабрь » 3 » Джованни Баттиста Перголези - Stabat Mater (Московский камерный оркестр, Рудольф Баршай, Ирина Архипова, 1966, Vinyl rip)
Джованни Баттиста Перголези - Stabat Mater (Московский камерный оркестр, Рудольф Баршай, Ирина Архипова, 1966, Vinyl rip)

Теги: Московский камерный оркестр, Перголези, Рудольф Баршай, ДЖОВАННИ БАТТИСТА ПЕРГОЛЕЗИ, Баршай




Джованни Баттиста Перголези
(1710 - 1736)

Stabat Mater
(соч. 1736 г.)

Общее время звучания: 00:47:35
Vinyl rip Мелодия 33С-1409 (1966)

FLAC, Scans


Сторона 1
01. Дуэт (хор)
02. Ария (сопрано)
03. Дуэт (хор)
04. Ария (меццо-сопрано)
05. Дуэт (сопрано, меццо-сопрано, хор)
06. Ария (сопрано)

***

Сторона 2
07. Ария (меццо-сопрано)
08. Дуэт (хор)
09. Дуэт (сопрано и меццо-сопрано)
10. Ария (меццо-сопрано)
11. Дуэт (сопрано и меццо-сопрано)
12. Дуэт (хор)
13. Дуэт (хор)

***

Галина Писаренко (сопрано)
Ирина Архипова (меццо-сопрано)
Республиканская русская хоровая капелла
Художественный руководитель А. Юрлов
Московский камерный оркестр

Дирижер: Рудольф Баршай




пароль: AeternaeVeritates

Анатолий (AHATAH) добавил файл cue

http://files.mail.ru/TPEL80

Для пользования им нужно переименовать основной файл так, как назван cue.

***


Категория: аудио | Просмотров: 2845 | Добавил(а): AeternaeVeritates
Важно: что делать, если ссылка на скачивание не работает.
Понравился материал?
Ссылка
html (для сайта, блога, ...)
BB (для форума)
Комментарии
Всего комментариев: 20
1. Сильвио (komponist)   (03 Декабря 12 11:58)
appl bravo appl

2. Григорий (Отрепьев)   (03 Декабря 12 12:18)
Изумительное исполнение,
значительно драматичнее многих и многих... bravo appl

3. Алексей Рейман (alex_rv)   (03 Декабря 12 14:14)
Огромное спасибо !
Полностью еще не смог послушать, но и по фрагментам
очевиден уровень этого замечательного исполнения.
appl appl appl appl appl

4. Виктор Зиновьев (werooozer)   (03 Декабря 12 14:52)
Спасибо!!!

5. Totkotoriy Samposebe (Totkotoryi)   (03 Декабря 12 15:23)
Это превосходно!!
Огромное спасибо!
Извините

6. Анатолий (AHATAH)   (03 Декабря 12 16:28)
Уважаемые погруженцы. Уж не знаю, в самом ли деле в архиве отсутствует файл CUE или это только у меня так скачалось, но слушать целиком 47-минутный файл по ряду причин я не имею возможности. Посему я, да простит мне уважаемый AeternaeVeritates, набрался наглости и собственноручно соорудил упомянутый CUE, да еще и осмеливаюсь предложить его вам, если пожелаете.
Ссылка:
http://files.mail.ru/TPEL80

Единственное, что потребуется от пожелавших воспользоваться упомянутым CUE, - переименовать основной файл так, как назван этот самый КУЕ .
Что же до самого поста - честь вам и хвала, уважаемый AeternaeVeritates! bravo

9. почитатель (kubra)   (03 Декабря 12 18:17)
Спасибо, Анатолий. Такую наглость мы приветствуем! Только это расширение по-русски читается "кью". :)

12. (AeternaeVeritates)   (03 Декабря 12 22:24)
Анатолий, большое Вам спасибо за CUE!
Я же прилюдно каюсь за сей промах, но у меня совершенно не было времени на это.

7. Дмитрий Смирнов (dmnsmir)   (03 Декабря 12 16:49)
Спасибо! appl appl appl

8. Alex Rayev (Rayev)   (03 Декабря 12 17:16)
Огромное спасибо! :) appl appl appl

10. Oktavio (Oktavio)   (03 Декабря 12 20:37)
Спасибо!
Исполнение одно из лучших, если не самое. А хоровые части вообще великолепны appl
Правда надо сказать, что Писаренко-Архипова уступают Френи-Берганза.

11. alexey semlyanoy (terrestro)   (03 Декабря 12 22:01)
Писаренко - Архипова СИЛЬНО уступают Берганца-Френи! Очень сильно! :'(

13. Oktavio (Oktavio)   (04 Декабря 12 23:26)
Переслушал многие Stabat Mater на погружении и склоняюсь к тому, что это исполнение отвечает всем взыскательным требованиям:
http://intoclassics.net/news/2008-07-22-1160
Действительно, Френи-Берганза дуэт высшей пробы.
Помимо того, сама интерпретация не грешит люфтом темповых отклонений. Всё довольно выверенно, в т.ч. и необходимый элемент драматизма.
Скажем так, пока нашёл для себя любимое исполнение.
Чего желаю и всем остальным :)

15. Димитрий (Аврелий)   (24 Апреля 13 21:22)
"…это исполнение отвечает всем взыскательным требованиям…"

Указанное Вами исполнение, дорогой Октавио, уже тем нехорошо (в отличие от этого!), что в нем фактически НЕТ божественной 12-й части, без которой нет этого произведения. Вместо хора - жиденький дуэт? Да даже если у Перголези в нотах не прописан хор (я этого не знаю), хор должен здесь быть!..

16. (nixelle)   (24 Апреля 13 21:32)
У Перголези в нотах прописан именно хор.

17. Димитрий (Аврелий)   (24 Апреля 13 21:48)
Ура! bravo booze

14. Димитрий (Аврелий)   (24 Апреля 13 20:18)
А у меня именно эта запись на первом месте (может быть, потому что первая любовь - на виниловой пластинке, самолично купленной в Гостином Дворе в детстве)))!
Спасибо автору выкладки, а также Анатолию за файл CUE! appl booze

18. Анатолий (AHATAH)   (25 Апреля 13 11:55)
Ввиду того, что прежняя ссылка на файл CUE благополучно почила, а желающие скачать этот файл еще есть, - вот новая ссылка (надеюсь, что не нарушаю при этом никаких правил):
http://yadi.sk/d/V950v5XK4Jjud
Прошу лишь обратить внимание на то, что название файла CUE должно в точности совпадать с названием муз.файла. Успешного погружения!
:)

19. Taras V. (little_listener)   (25 Апреля 13 12:32)
Не буду оригинален: спасибо за оцифровку одной из любимейших моих пластинок appl appl appl

Спасибо также Анатолию за CUE. Поскольку ссылки не вечны, как показывает опыт, дублирую его содержание сюда:

PERFORMER "Pergolesi"
TITLE "Stabat Mater"
FILE "Pergolesi - Stabat Mater (R.Barshai).flac" WAVE
TRACK 01 AUDIO
TITLE "Chour"
INDEX 01 00:00:00
TRACK 02 AUDIO
TITLE "Aria - soprano"
INDEX 01 05:52:04
TRACK 03 AUDIO
TITLE "Chour"
INDEX 01 09:00:74
TRACK 04 AUDIO
TITLE "Aria - mezzo-soprano"
INDEX 01 11:55:26
TRACK 05 AUDIO
TITLE "Duet - soprano, mezzo-soprano and chour"
INDEX 01 16:12:66
TRACK 06 AUDIO
TITLE "Aria - mezzo-soprano"
INDEX 01 19:02:28
TRACK 07 AUDIO
TITLE "Aria - mezzo-soprano"
INDEX 01 24:20:39
TRACK 08 AUDIO
TITLE "Duet - chour"
INDEX 01 27:14:65
TRACK 09 AUDIO
TITLE "Duet - soprano and mezzo-soprano"
INDEX 01 29:37:03
TRACK 10 AUDIO
TITLE "Aria - mezzo-soprano"
INDEX 01 35:29:05
TRACK 11 AUDIO
TITLE "Duet - soprano and mezzo-soprano"
INDEX 01 39:26:10
TRACK 12 AUDIO
TITLE "Chour"
INDEX 01 42:23:63
TRACK 13 AUDIO
TITLE "Chour"
INDEX 01 46:26:61

20. Андрей Аверьянов (averianovmeister)   (14 Июля 15 00:07)
хотелось бы послушать вашу запись, буду признателен если вы сможете обновить ссылку, спасибо!

Добавлять комментарии могут только зарегистрированные пользователи.
[ Регистрация | Вход ]

Аудио/видеозаписи и литература предоставляются исключительно для ознакомления. После ознакомления они должны быть удалены, иначе, вероятно, Вами будет нарушен закон "об авторском праве и смежных правах".
Помощь тяжело больным детям. Подробнее.
Форма входа








ПОГРУЖЕНИЕ В КЛАССИКУ. Здесь живет бесплатная классическая музыка в mp3 и других форматах.