Погружение в классику
Погружение в классику
RSS
аудио
Меню сайта
Поиск
по заголовкам
по всему сайту
поиск от Google

Из нашего архива
А.Г. Шнитке - фортепианный квинтет, Д.Д. Шостакович - струнный квартет №15, Келлер-квартет и Алексей Любимов (ape) [аудио]
Гленн Гульд играет сонаты Бетховена (ape) [аудио]
А.Дворжак, Р.Шуман – Концерты для Виолончели с оркестром. Жаклин Дюпре. [аудио]
Календарь новостей
«  Май 2011  »
ПнВтСрЧтПтСбВс
      1
2345678
9101112131415
16171819202122
23242526272829
3031

Приветствуем Вас, Гость.
Текущая дата: Понедельник, 18 Декабрь 17, 05:55
Главная страница » 2011 » Май » 18 » Луи Шпор "Дуэты для двух скрипок"Op. 39
Луи Шпор "Дуэты для двух скрипок"Op. 39
narod.ruIMAGE1$ 
Луи Шпор "Дуэты для двух скрипок"(Csaba, Szabadi) Фориат апе. Залито на мейл.
1-3 Дуэт для двух скрипок ре минор
4-6 Дуэт для двух скрипок ми бемоль мажор
7-15 Дуэт для двух скрипок ми мажор
Peter Csaba 1st violin
Vilmos Szabadi 2nd violin

Ccылка на народ

к сожалению только запись, если у кого сохранился файл cue - просьба добавить

http://narod.ru/disk/13325400001/Shpor.zip.html

Категория: аудио | Просмотров: 2842 | Добавил(а): constantin
Важно: что делать, если ссылка на скачивание не работает.
Понравился материал?
Ссылка
html (для сайта, блога, ...)
BB (для форума)
Комментарии
Всего комментариев: 6
1. Татьяна (татьяна)   (01 Июль 09 10:31)
Спасибо! Пригодится! :)
Кажется, Вы, Константин, говорили про концерт Ридинга с Перлманом. Любопытно послушать, а никто не выкладывает!

2. lev tihomirov (magometov)   (01 Июль 09 18:13)
Большое спасибо, красивая музыка.

3. TRAFIK (trafik)   (22 Ноябрь 09 17:58)
Благодарю!!!!!

4. почитатель (kubra)   (17 Май 11 16:44)
Козлов: http://intoclassics.net/faq/0-0-31 deal

5. Peter Lazar (lazyp)   (21 Май 11 04:35)
Here ia 3 tracklist to Spohr's Violin Duetts:

Spohr, Louis
PÉTER CSABA - 1st violin
VILMOS SZABADI - 2nd violin

Violin Duet in C major, Op. 9, No. 1
I. Allegro 8:55
II. Poco adagio 0:57
III. Allegro 5:11
Violin Duet in A major, Op. 9, No. 2
I. Allegro vivace 8:34
II. Rondo: Allegretto 5:55
Violin Duet in C major, Op. 153
I. Allegro 10:00
II. Andante 4:40
III. Menuetto 5:54
IV. Rondo: Allegretto 5:39

----------------------------------
C-dúr duett / No. 1 in C major 15’ 06”
1. I. Allegro 8’ 56”
2. II. Poco Adagio 1’ 00”
3. III. Allegro 5’ 10”

A-dúr duett / No. 2 in A major 14’ 33”
4. I. Allegro vivace 8’ 41”
5. II. Rondo. Allegretto 5’ 58”

C-dúr duett két hegedure / Duet in C major for two Violins Op.153. 26’ 27”
6. I. Allegro 10’ 09"
7. II. Andante 4’ 43”
8. III. Menuetto 5’ 58”
9. IV. Rondo. Allegretto 5’ 39”

Total time: 56’ 23”

----------------------------------
F-dúr duett két hegedűre /
Duet for Two Violins in F major (Grand Duo) Op. 148 29'07"
1. I. Allegro vivace 8'29"
2. II. Andante con moto 5'08"
3. III. Scherzo. Moderato 5'35"
4. IV. Finale. Vivace 9'48"

D-dúr duett két hegedűre /
Duet for Two Violins in D major Op. 150 29'40"
5. I. Allegro 9'56"
6. II. Larghetto 5'55"
7. III. Menuetto 7'19"
8. IV. Rondo. Allegretto 6'19"

Összidő / Total time: 58'57"


6. Bokalov (zvon)   (21 Май 11 08:30)
Работающий CUE (скопировать в текст файл и поменять расширение файла: .txt --->.cue :

PERFORMER "Csaba,Szabadi"
TITLE "Spohr, Louis-Duets for Two Violins Op39"
FILE "Shpor.ape" WAVE
TRACK 01 AUDIO
TITLE "D minor Op.39 No 1-I. Allegro"
PERFORMER "Csaba,Szabadi"
FLAGS DCP
INDEX 01 00:00:00
TRACK 02 AUDIO
TITLE "II. Adagio"
PERFORMER "Csaba,Szabadi"
FLAGS DCP
INDEX 00 09:10:15
INDEX 01 09:14:13
TRACK 03 AUDIO
TITLE "III. Presto"
PERFORMER "Csaba,Szabadi"
FLAGS DCP
INDEX 00 14:13:61
INDEX 01 14:15:68
TRACK 04 AUDIO
TITLE "E flat major Op.39 No 2-I. Andante"
PERFORMER "Csaba,Szabadi"
FLAGS DCP
INDEX 00 20:37:21
INDEX 01 20:44:28
TRACK 05 AUDIO
TITLE "II. Menuetto. Allegro"
PERFORMER "Csaba,Szabadi"
FLAGS DCP
INDEX 00 30:16:66
INDEX 01 30:21:39
TRACK 06 AUDIO
TITLE "III. Vivace"
PERFORMER "Csaba,Szabadi"
FLAGS DCP
INDEX 00 35:22:33
INDEX 01 35:23:41
TRACK 07 AUDIO
TITLE "E major Op.39 No 3-I. Adagio. Allegro molto agitato"
PERFORMER "Csaba,Szabadi"
FLAGS DCP
INDEX 00 42:34:47
INDEX 01 42:41:62
TRACK 08 AUDIO
TITLE "II. Andante con variazioni"
PERFORMER "Csaba,Szabadi"
FLAGS DCP
INDEX 00 51:44:45
INDEX 01 51:48:28
TRACK 09 AUDIO
TITLE "1. Variazione"
PERFORMER "Csaba,Szabadi"
FLAGS DCP
INDEX 01 53:27:66
TRACK 10 AUDIO
TITLE "2. Variazione"
PERFORMER "Csaba,Szabadi"
FLAGS DCP
INDEX 01 54:52:44
TRACK 11 AUDIO
TITLE "3. Variazione"
PERFORMER "Csaba,Szabadi"
FLAGS DCP
INDEX 01 56:15:17
TRACK 12 AUDIO
TITLE "4. Variazione"
PERFORMER "Csaba,Szabadi"
FLAGS DCP
INDEX 01 57:55:05
TRACK 13 AUDIO
TITLE "5. Variazione"
PERFORMER "Csaba,Szabadi"
FLAGS DCP
INDEX 01 59:14:41
TRACK 14 AUDIO
TITLE "6. Variazione"
PERFORMER "Csaba,Szabadi"
FLAGS DCP
INDEX 01 61:09:31
TRACK 15 AUDIO
TITLE "III. Rondo alla Polacca"
PERFORMER "Csaba,Szabadi"
FLAGS DCP
INDEX 00 64:19:07
INDEX 01 64:22:19


Добавлять комментарии могут только зарегистрированные пользователи.
[ Регистрация | Вход ]

Аудио/видеозаписи и литература предоставляются исключительно для ознакомления. После ознакомления они должны быть удалены, иначе, вероятно, Вами будет нарушен закон "об авторском праве и смежных правах".
Помощь тяжело больным детям. Подробнее.
Форма входа








ПОГРУЖЕНИЕ В КЛАССИКУ. Здесь живет бесплатная классическая музыка в mp3 и других форматах.