Погружение в классику
Погружение в классику
RSS
аудио
Меню сайта
Поиск
по заголовкам
по всему сайту
поиск от Google

Из нашего архива
Альберт Швейцер (орган) играет Баха (ape) [аудио]
Валерий Афанасьев - Шопен. Мазурки [аудио]
Tedi Papavrami исполняет Scherzo Tarantelle Генриха Венявского [видео]
Календарь новостей
«  Август 2010  »
ПнВтСрЧтПтСбВс
      1
2345678
9101112131415
16171819202122
23242526272829
3031

Приветствуем Вас, Гость.
Текущая дата: Среда, 21 Февраля 18, 16:30
Главная страница » 2010 » Август » 10 » Гендель: Юлий Цезарь в Египте - Дитрих Фишер-Дискау / Handel: Giulio Cesare in Egitto - Dietrich Fischer-Dieskau, Tatiana Troyanos
Гендель: Юлий Цезарь в Египте - Дитрих Фишер-Дискау / Handel: Giulio Cesare in Egitto - Dietrich Fischer-Dieskau, Tatiana Troyanos
George Frideric Handel

Giulio Cesare in Egitto
(на итальянском языке)

Giulio Cesare - Dietrich Fischer-Dieskau
Cleopatra - Tatiana Troyanos
Cornelia - Julia Hamari
Sesto - Peter Schreier
Tolomeo - Franz Crass
Achilla - Ernst Gerold Schramm
Curio - Wolfgang Schone
Nireno - Michael Schopper

Munchener Bach-Orchester
Munchener Bach-Chor
Conductor Karl Richter

Recorded in 1969

4 CD | EAC Rip | APE+CUE+LOGs | Complete Booklet HQ | 1,12 GB | 2006 | CD1 57'16, CD2 36'08, CD3 81'05, CD4 69'25

http://depositfiles.com/ru/files/3gq317da4?redirect CD1,2
http://depositfiles.com/ru/files/upk2o926a?redirect CD3
http://depositfiles.com/ru/files/8fabh9j32?redirect CD4,Scans

http://uploading.com/files/3cdb5b35/Handel%2B-%2BGiulio%2BCesare%2Bin%2BEgitto%2B-%2BRichter%2BCD1%252CCD2.rar/ CD1,2
http://uploading.com/files/68423bf3/Handel%2B-%2BGiulio%2BCesare%2Bin%2BEgitto%2B-%2BRichter%2BCD3.rar/ CD3
http://uploading.com/files/mcd825ff/Handel%2B-%2BGiulio%2BCesare%2Bin%2BEgitto%2B-%2BRichter%2BCD4%252CCovers.rar/ CD4,Scans

http://www.fileserve.com/file/65tDe37 CD1,2
http://www.fileserve.com/file/dp9zNZP CD3
http://www.fileserve.com/file/dWAdkQ7 CD4,Scans

Категория: аудио | Просмотров: 2459 | Добавил(а): CaterinaSforza
Важно: что делать, если ссылка на скачивание не работает.
Понравился материал?
Ссылка
html (для сайта, блога, ...)
BB (для форума)
Комментарии
Всего комментариев: 4
1. Мышка Маузер (mauserj)   (10 Августа 10 15:06)
СПАСИБО ОГРОМНОЕ!!! bravo bravo bravo appl appl appl
Это бесподобная запись... Хотя у меня она уже есть, я просто безумно счастлива, что теперь она доступна и другим погруженцам, да еще в таком качестве! choir choir choir

2. Michael Orlov (CaterinaSforza)   (10 Августа 10 21:09)
Это не мой рип,подарок Longina.
Логи отличные:

Exact Audio Copy V0.99 prebeta 3 from 28. July 2007

Отчёт EAC об извлечении, выполненном 16. июня 2010, 8:06

Handel / Giulio Cesare - Karl Richter CD1

Дисковод: PIONEER DVD-RW DVR-218L Adapter: 4 ID: 1

Режим чтения : Достоверность
Использование точного потока : Да
Отключение кэша аудио : Да
Использование указателей C2 : Нет

Коррекция смещения при чтении : 6
Способность читать области Lead-in и Lead-out : Нет
Заполнение пропущенных сэмплов тишиной : Да
Удаление блоков с тишиной в начале и конце : Нет
При вычислениях CRC использовались нулевые сэмплы : Да
Интерфейс : Встроенный Win32-интерфейс для Win NT/2000

Выходной формат : Внутренние WAV-операции
Формат сэмплов : 44.100 Гц; 16 бит; стерео

TOC извлечённого CD

Трек | Старт | Длительность | Начальный сектор | Конечный сектор
---------------------------------------------------------------------
1 | 0:00.00 | 3:48.69 | 0 | 17168
2 | 3:48.69 | 1:24.27 | 17169 | 23495
3 | 5:13.21 | 2:10.71 | 23496 | 33316
4 | 7:24.17 | 0:28.45 | 33317 | 35461
5 | 7:52.62 | 1:30.67 | 35462 | 42278
6 | 9:23.54 | 2:32.45 | 42279 | 53723
7 | 11:56.24 | 4:11.16 | 53724 | 72564
8 | 16:07.40 | 1:41.03 | 72565 | 80142
9 | 17:48.43 | 5:38.54 | 80143 | 105546
10 | 23:27.22 | 0:21.15 | 105547 | 107136
11 | 23:48.37 | 4:19.72 | 107137 | 126633
12 | 28:08.34 | 2:43.31 | 126634 | 138889
13 | 30:51.65 | 4:13.41 | 138890 | 157905
14 | 35:05.31 | 1:31.45 | 157906 | 164775
15 | 36:37.01 | 3:42.53 | 164776 | 181478
16 | 40:19.54 | 2:45.57 | 181479 | 193910
17 | 43:05.36 | 1:49.24 | 193911 | 202109
18 | 44:54.60 | 3:30.56 | 202110 | 217915
19 | 48:25.41 | 0:39.55 | 217916 | 220895
20 | 49:05.21 | 5:01.72 | 220896 | 243542
21 | 54:07.18 | 0:31.60 | 243543 | 245927
22 | 54:39.03 | 2:37.33 | 245928 | 257735

Характеристики диапазона извлечения и сообщения об ошибках

Выбранный диапазон

Имя файла C:\A\Rec\Handel - Giulio Cesare - Karl Richter CD1.wav

Пиковый уровень 100.0 %
Качество диапазона 100.0 %
CRC копии 19949667
Копирование... OK

Ошибок не произошло

Конец отчёта


3. Наталья Козаева ((Natali))   (05 Апреля 11 16:57)
Ссылки не работают. Может быть есть возможность обновить?
И если можно выложите в mp3.
Спасибо.

4. femm femm (femm)   (04 Января 17 07:09)
Увы нам. А так хотелось Tatiana Troyanos послушать...

Добавлять комментарии могут только зарегистрированные пользователи.
[ Регистрация | Вход ]

Аудио/видеозаписи и литература предоставляются исключительно для ознакомления. После ознакомления они должны быть удалены, иначе, вероятно, Вами будет нарушен закон "об авторском праве и смежных правах".
Помощь тяжело больным детям. Подробнее.
Форма входа








ПОГРУЖЕНИЕ В КЛАССИКУ. Здесь живет бесплатная классическая музыка в mp3 и других форматах.