Погружение в классику
Погружение в классику
RSS
аудио
Меню сайта
Поиск
по заголовкам
по всему сайту
поиск от Google

Из нашего архива
И.С.Бах, Дж.Тартини, сонаты для скрипки и клавесина, скрипки и basso continuo. Г.Баринова, С.Рихтер, Л.Ройзман [аудио]
В.А.Моцарт, Реквием. Караян, Анна Томова-Синтова, Агнес Бальтса, Вернер Кренн, Жозе Ван Дам [аудио]
И.С.Бах - Сонаты для скрипки и фортепиано. Сонаты для виола да гамба и фортепиано. Гленн Гульд, Хайме Ларедо, Леонард Роуз. [аудио]
Календарь новостей
«  Июль 2008  »
ПнВтСрЧтПтСбВс
 123456
78910111213
14151617181920
21222324252627
28293031

Приветствуем Вас, Гость.
Текущая дата: Воскресенье, 22 Октябрь 17, 00:28
Главная страница » 2008 » Июль » 25 » Бела Барток "Complete Edition"_Disk 05
Бела Барток "Complete Edition"_Disk 05
PERFORMER "Various Artists"
TITLE "Bartуk Complete 5/29 Chamber Works II"
FILE "Chamber Works II.ape" WAVE
  TRACK 01 AUDIO
    TITLE "Sonata No 1 for Violin and Piano I. Allegro appassionato"
    PERFORMER "Sonata No 1 for Violin and Piano I. Allegro appassionato"
    FLAGS DCP
    INDEX 01 00:00:00
  TRACK 02 AUDIO
    TITLE "Sonata No 1 for Violin and Piano II. Adagio"
    PERFORMER "Sonata No 1 for Violin and Piano II. Adagio"
    FLAGS DCP
    INDEX 00 12:38:39
    INDEX 01 12:41:41
  TRACK 03 AUDIO
    TITLE "Sonata No 1 for Violin and Piano III. Allegro"
    PERFORMER "Sonata No 1 for Violin and Piano III. Allegro"
    FLAGS DCP
    INDEX 00 22:15:21
    INDEX 01 22:17:39
  TRACK 04 AUDIO
    TITLE "Sonata No 2 for Violin and Piano Molto moderato"
    PERFORMER "Sonata No 2 for Violin and Piano Molto moderato"
    FLAGS DCP
    INDEX 00 32:09:53
    INDEX 01 32:18:30
  TRACK 05 AUDIO
    TITLE "Sonata No 2 for Violin and Piano Allegretto"
    PERFORMER "Sonata No 2 for Violin and Piano Allegretto"
    FLAGS DCP
    INDEX 01 40:46:30
  TRACK 06 AUDIO
    TITLE "Sonata for Solo Violin I. Tempo di ciaccona"
    PERFORMER "Sonata for Solo Violin I. Tempo di ciaccona"
    FLAGS DCP
    INDEX 00 52:32:46
    INDEX 01 52:40:42
  TRACK 07 AUDIO
    TITLE "Sonata for Solo Violin II. Fuga. Risoluto, non troppo vivo"
    PERFORMER "Sonata for Solo Violin II. Fuga. Risoluto, non troppo vivo"
    FLAGS DCP
    INDEX 00 60:31:38
    INDEX 01 60:35:25
  TRACK 08 AUDIO
    TITLE "Sonata for Solo Violin III. Melodia. Adagio"
    PERFORMER "Sonata for Solo Violin III. Melodia. Adagio"
    FLAGS DCP
    INDEX 00 64:34:41
    INDEX 01 64:37:38
  TRACK 09 AUDIO
    TITLE "Sonata for Solo Violin IV. Presto"
    PERFORMER "Sonata for Solo Violin IV. Presto"
    FLAGS DCP
    INDEX 01 70:37:50


http://narod.ru/disk/1651350000/Bela%20Bartok%20Complete%20Edition%2005%20APE_%5BSVARSHIK%5D.part1.rar.html

http://narod.ru/disk/1651545000/Bela%20Bartok%20Complete%20Edition%2005%20APE_%5BSVARSHIK%5D.part2.rar.html

http://narod.ru/disk/1651889000/Bela%20Bartok%20Complete%20Edition%2005%20APE_%5BSVARSHIK%5D.part3.rar.html





Категория: аудио | Просмотров: 3488 | Добавил(а): Svarshik
Важно: что делать, если ссылка на скачивание не работает.
Понравился материал?
Ссылка
html (для сайта, блога, ...)
BB (для форума)
Комментарии
Всего комментариев: 5
1. Женя (classical)   (25 Июль 08 13:00)
А играет-то кто?

2. Svarshik (Svarshik)   (25 Июль 08 13:31)
Какие-то дяди и тёти :)

3. Svarshik (Svarshik)   (25 Июль 08 13:34)
http://mainlyopera.com/title.html?catno=HCD+41002+ (29cd)

между "+" и "(29cd)" нужно удалить пробел.


4. Андрей (andro)   (26 Июль 08 12:26)
Большое спасибо. :)

5. Svarshik (Svarshik)   (26 Июль 08 13:34)
Слушайте на здоровье ! :D

Добавлять комментарии могут только зарегистрированные пользователи.
[ Регистрация | Вход ]

Аудио/видеозаписи и литература предоставляются исключительно для ознакомления. После ознакомления они должны быть удалены, иначе, вероятно, Вами будет нарушен закон "об авторском праве и смежных правах".
Помощь тяжело больным детям. Подробнее.
Форма входа








ПОГРУЖЕНИЕ В КЛАССИКУ. Здесь живет бесплатная классическая музыка в mp3 и других форматах.