Не открывается скачанный диск - intoclassics.net - форум
[ Новые сообщения · Участники · Правила форума · Поиск · RSS ]
Страница 1 из 3123»
intoclassics.net - форум » Технический раздел » Софт » Не открывается скачанный диск
Не открывается скачанный диск
eddie788Дата: Вторник, 01 Август 17, 18:21 | Сообщение # 1
Группа: Пользователи
Сообщений: 11
Статус: Offline
Что делать, если скачанный диск (flac или ape + cue) не открывается? Причина - ошибка в одной из строк cue, отсутствие промежуточных фильтров и т.п.  Диск не прожигается и не монтируется как виртуальный
 
nibelungДата: Вторник, 01 Август 17, 18:45 | Сообщение # 2
Группа: Проверенные
Сообщений: 1853
Статус: Offline
Диски не прожигают. Можно пожар устроить, да и не к чему. А все не читаются, или только один?
 
eddie788Дата: Вторник, 01 Август 17, 18:54 | Сообщение # 3
Группа: Пользователи
Сообщений: 11
Статус: Offline
5-7% от всего количества. Иногда удается починить cue, иногда - наглухо нет. Кстати, никто больше не жалуется на подобную проблему
 
nibelungДата: Вторник, 01 Август 17, 19:14 | Сообщение # 4
Группа: Проверенные
Сообщений: 1853
Статус: Offline
А чем читаете музыкальный файл? И пришлите образец файла.

Сообщение отредактировал nibelung - Вторник, 01 Август 17, 19:16
 
eddie788Дата: Вторник, 01 Август 17, 19:58 | Сообщение # 5
Группа: Пользователи
Сообщений: 11
Статус: Offline
Открываю cue в Daemon tools и вижу аудиодиск в виртуальном приводе. Более длинный путь - прожиг в Nero (образ) или в сложных случаях в ImgBurn (но у него нет виртуального привода)

Добавлено (01 Августа 17, 19:58)
---------------------------------------------
Пример - в коллекции Буш-квартета не открывается 4-й диск. http://intoclassics.net/news/2017-07-31-24297
Это уже второй раз, первый - скачал эту коллекцию 2 года назад, не помню откуда, и с тем же результатом

 
nibelungДата: Вторник, 01 Август 17, 20:15 | Сообщение # 6
Группа: Проверенные
Сообщений: 1853
Статус: Offline
Если Вам нужен непременно круглый серый диск, то я помочь не смогу. Я занимаюсь только противоположной работой - рипую физические диски в цифровые образы. Чтобы пользоваться скачанным диском, его не обязательно прожигать. Можно просто проигрывать на компьютере (компьютер соединён с усилителем и акустической системой).
 
eddie788Дата: Вторник, 01 Август 17, 20:31 | Сообщение # 7
Группа: Пользователи
Сообщений: 11
Статус: Offline
Но диск не открывается! Мне нужен образ диска, чтобы работать с треками
 
nibelungДата: Вторник, 01 Август 17, 20:49 | Сообщение # 8
Группа: Проверенные
Сообщений: 1853
Статус: Offline
Для того, чтобы проиграть диск, я пользуюсь программой AIMP4. Если требуется непременная разбивка на отдельные файлы-треки, я делю диск программой Medieval CUE Splitter. 4-й Буш-квартета в первом издании я скачал, прослушал. Там три трека - по треку на квартет. Это не очень удобно. Вы хотите сделать треки частей квартетов?

Сообщение отредактировал nibelung - Вторник, 01 Август 17, 20:59
 
eddie788Дата: Вторник, 01 Август 17, 21:42 | Сообщение # 9
Группа: Пользователи
Сообщений: 11
Статус: Offline
Спасибо, попробую

Добавлено (01 Августа 17, 21:42)
---------------------------------------------
cue показывает 11 треков

 
nibelungДата: Вторник, 01 Август 17, 21:57 | Сообщение # 10
Группа: Проверенные
Сообщений: 1853
Статус: Offline
Цитата eddie788 ()
cue показывает 11 треков
Всё верно, это Вы скачале 4-й диск 2-го издания. Есть проблемы?
 
sidmakДата: Вторник, 01 Август 17, 23:07 | Сообщение # 11
Группа: Проверенные
Сообщений: 365
Статус: Offline
Я так понимаю, что речь идёт о 4 диске по этой ссылке: https://cloud.mail.ru/public/6xjk/WRWTF3VZH/busch-quartet/

Лог файла нет и в какой программе сделан рип (явно не EAC) неизвестно.
Открываем .cue файл программой Блокнот и видим... длинную колбаску текста. Уже не комильфо, хотя ничего страшного в этом и нет, но так удобнее:

PERFORMER "Busch Quartet"
TITLE "The Busch Quartet Play Beethoven, Vol. 4"
FILE "The_Busch_Quartet_Play_Beethoven,_Vol._4.flac" WAVE
TRACK 01 AUDIO
INDEX 00 00:00:00
TITLE "String Quartet No. 13 in B-Flat Major, op. 130: I. Adagio ma non troppo – Allegro"
INDEX 01 00:01:00
TRACK 02 AUDIO
TITLE "String Quartet No. 13 in B-Flat Major, op. 130: II. Presto"
INDEX 01 09:02:20
TRACK 03 AUDIO
TITLE "String Quartet No. 13 in B-Flat Major, op. 130: III. Andante con moto, ma non troppo"
INDEX 01 11:01:52
TRACK 04 AUDIO
TITLE "String Quartet No. 13 in B-Flat Major, op. 130: IV. Alla danza tedesca: Allegro assai"
INDEX 01 16:25:44
TRACK 05 AUDIO
TITLE "String Quartet No. 13 in B-Flat Major, op. 130: V. Cavatina: Adagio molto espressivo"
INDEX 01 18:53:63
TRACK 06 AUDIO
TITLE "String Quartet No. 13 in B-Flat Major, op. 130: VI. Finale: Allegro"
INDEX 01 25:57:65
TRACK 07 AUDIO
TITLE "String Quartet No. 15 in A Minor, op. 132: I. Assai sostenuto – Allegro"
INDEX 01 34:26:38
TRACK 08 AUDIO
TITLE "String Quartet No. 15 in A Minor, op. 132: II. Allegro ma non tanto"
INDEX 01 43:35:63
TRACK 09 AUDIO
TITLE "String Quartet No. 15 in A Minor, op. 132: III. Molto adagio – Andante – Molto adagio"
INDEX 01 51:42:64
TRACK 10 AUDIO
TITLE "String Quartet No. 15 in A Minor, op. 132: IV. Alla marcia, assai vivace"
INDEX 01 71:09:62
TRACK 11 AUDIO
TITLE "String Quartet No. 15 in A Minor, op. 132: V. Allegro appassionato"
INDEX 01 73:03:06

Ошибка в третьей строке. Имя файла на который должен ссылаться данный .cue файл - другое.

Либо меняем параметр строки здесь:

FILE "cd4.flac" WAVE

либо переименовываем файл с расширением .flac:

The_Busch_Quartet_Play_Beethoven,_Vol._4.flac

ВСЁ ЗАРАБОТАЕТ!

---------------------------
p.s. Синим цветом выделена необязательная строка. Её можно удалить.

Тайминги надо править - они не точны. Например, у 2-го трека подрезано начало.

вместо
INDEX 01 09:02:20
я бы предложил
INDEX 01 09:01:60


Сообщение отредактировал sidmak - Вторник, 01 Август 17, 23:30
 
eddie788Дата: Вторник, 01 Август 17, 23:56 | Сообщение # 12
Группа: Пользователи
Сообщений: 11
Статус: Offline
Правка cue - первое, что я сделал, но не всегда помогает. Как знать, что надо править тайминги и как это делать? Странно, что никто не упоминает об этой проблеме - все справляются сами или я один такой невезучий или профан?
 
sidmakДата: Среда, 02 Август 17, 00:09 | Сообщение # 13
Группа: Проверенные
Сообщений: 365
Статус: Offline
Цитата eddie788 ()
но не всегда помогает

Вы правы, иногда проще полностью его переписать.

Цитата eddie788 ()
Как знать, что надо править тайминги

Включаете предыдущий трек, передвигаете бегунок на его окончание и слушаете переход на следующий трек. Теперь ещё раз непосредственно нужный трек - если его начало подрезано, то вы это сразу услышите. Править в Блокноте соответствующую этому треку строку.

    INDEX 01 09:01:60  (минуты - секунды - фреймы) Просто уменьшайте значения фреймов, иногда можно и на секунду сразу уменьшить.
    INDEX 01 09:01:12 - можно так
    INDEX 01 09:00:31 - можно так

сохраняете изменения в файле и снова запускаете на воспроизведение. Так методом проб и ошибок найдёте необходимое значение.


Сообщение отредактировал sidmak - Среда, 02 Август 17, 00:16
 
eddie788Дата: Среда, 02 Август 17, 00:12 | Сообщение # 14
Группа: Пользователи
Сообщений: 11
Статус: Offline
В какой программе?
 
sidmakДата: Среда, 02 Август 17, 00:25 | Сообщение # 15
Группа: Проверенные
Сообщений: 365
Статус: Offline
В программе (англ. Notepad), в русских версиях Windows Блокнот (она находится в здесь: ПУСК > Все программы > Стандартные)

либо

правой кнопкой мыши открываете контекстное меню - Открыть с помощью > выбираете программу из списка. Если по какой-то причине её нет в списке, придётся указать путь к ней.

Другие текстовые редакторы не подходят - они используют скрытые спец. символы форматирования и прочее...


Сообщение отредактировал sidmak - Среда, 02 Август 17, 00:29
 
intoclassics.net - форум » Технический раздел » Софт » Не открывается скачанный диск
Страница 1 из 3123»
Поиск: