О файлах cue и прочих мудреных вещах. - Страница 2 - intoclassics.net - форум
[ Новые сообщения · Участники · Правила форума · Поиск · RSS ]
  • Страница 2 из 2
  • «
  • 1
  • 2
intoclassics.net - форум » Музыка » Разговоры о музыке » О файлах cue и прочих мудреных вещах. (Помогите чайнику!)
О файлах cue и прочих мудреных вещах.
DalmatinetzДата: Вторник, 10 Марта 09, 22:01 | Сообщение # 16
Группа: Проверенные
Сообщений: 20
Статус: Offline
Дык так и делаю. А оно все равно не режет - появляются копии и cue файла, и того файла, что я пытался распилить((( В целости и сохранности :'(

Если чего-то не знаешь - не бойся об этом спросить, и все тут же бросятся тебе объяснять. (Дж.Даррелл)
 
brumsДата: Вторник, 10 Марта 09, 22:06 | Сообщение # 17
Группа: Проверенные
Сообщений: 94
Статус: Offline
1) Попробуйте сделать аналогичную операцию с другими cue - будет резать?
2) Может исходный флак такой? Вы откройте сам cue блокнотом, там есть разбивка на треки?


Sapienti sat
 
DalmatinetzДата: Вторник, 10 Марта 09, 22:11 | Сообщение # 18
Группа: Проверенные
Сообщений: 20
Статус: Offline
Нет. Разбивки не нашел(((
Попробовал разрезать другой файл - все прошло хорошо!!! :D

Спасибо за науку bravo


Если чего-то не знаешь - не бойся об этом спросить, и все тут же бросятся тебе объяснять. (Дж.Даррелл)
 
serlis1964Дата: Суббота, 06 Октября 18, 16:01 | Сообщение # 19
Группа: Пользователи
Сообщений: 1
Статус: Offline
Скачал Delta.Moon-Collection.2002-2010.FLAC.CUE.Lossless  Практически все концерты не разбиваются по треково. Правда если клацнуть по CUE то все разбивается. Пытался исправить CUE но не пойму что там не так? Нужна помощь.
 
sidmakДата: Воскресенье, 07 Октября 18, 23:51 | Сообщение # 20
Группа: Проверенные
Сообщений: 401
Статус: Offline
Цитата serlis1964 ()
не пойму что там не так? Нужна помощь.

Я вот тоже не пойму, что у вам там и где "разбивается", а где "не разбиваются". Давайте по порядку.

У вас есть:
некий файл с расширением.flac
и
некий файл с раcширением.cue
они оба находятся в одной папке
------------------------------------------------------------------
"Клацкаем" по файлу с расширением .cue и ... запустится программа, с которой этот тип файла ассоциирован. Обычно это foobar2000 - стандартный проигрыватель flac (и не только) файлов.
Музыка заиграла? Информация о треках в окне проигрывателя отображается? Названия треков, порядковые номера треков, исполнители, название альбома и прочее?

вар.1
Музыка играет. Всё отображается. - Тогда остаётся только проверить (на слух) правильность разделения на треки и можно резать, как в самой программе foobar2000, так и в специальной программе Medieval CUE Splitter. Всё должно получиться, т.к. foobar очень чувствителен к ошибкам и если уж воспроизвёл без проблем, то и разрежется, как по маслу.
вар.2
Музыка играет, но информации нет (кроме деления на треки). Значит соответствующие поля в .cue файле не заполнены. Вписать нужную информацию можно прямо в программе, а если она не особо важна, можно порезать и в таком виде. Главное что деление на треки есть и поделены они правильно.
вар.3
Музыка играет, но треки воспроизводятся (а соответственно и разрежутся) не с начала, либо с хвостиком от предыдущего трека. Такое бывает, когда оцифровка cd была выполнена некорректно (без предварительного определения зазора между треками).
Придётся открывать .cue файл в программе Блокнот и редактировать соответствующие параметры в текстовом режиме. Потом снова проверять, а потом уже резать.
вар.4
Вылезает какое-то окно с ошибками, окно проигрывателя открывается и даже что-то в нём отображается, но треки не проигрываются.
В окне с ошибками есть лишь информация о некорректности в определённых строках .cue файла, без конкретизации. Надо смотреть.

Открываем .cue файл в программе Блокнот и смотрим.

ПРИМЕР:

REM GENRE Classical
REM DATE 2006
REM DISCID E8125C0F
REM COMMENT "ExactAudioCopy v1.1"
PERFORMER "Berlin Philharmonic Wind Quintet"
TITLE "Danzi: Complete Wind Quintets"
FILE "Berlin Philharmonic Wind Quintet - Danzi- Complete Wind Quintets.flac" WAVE
TRACK 01 AUDIO
TITLE "Danzi: Wind Quintet in B-flat major Op. 56 No. 1. I. Allegretto"
PERFORMER "Berlin Philharmonic Wind Quintet"
INDEX 01 00:00:00
TRACK 02 AUDIO
TITLE "II. Andante con moto"
PERFORMER "Berlin Philharmonic Wind Quintet"
INDEX 01 07:52:00
TRACK 03 AUDIO
TITLE "III. Menuetto. Allegretto"
PERFORMER "Berlin Philharmonic Wind Quintet"
INDEX 01 10:57:50
TRACK 04 AUDIO
TITLE "IV. Allegretto"
PERFORMER "Berlin Philharmonic Wind Quintet"
INDEX 01 13:23:62
TRACK 05 AUDIO
TITLE "Danzi: Wind Quintet in G minor Op. 56 No. 2. I. Allegretto"
PERFORMER "Berlin Philharmonic Wind Quintet"
INDEX 01 16:07:00
TRACK 06 AUDIO
TITLE "II. Andante"
PERFORMER "Berlin Philharmonic Wind Quintet"
INDEX 01 21:52:00
TRACK 07 AUDIO
TITLE "III. Menuetto. Allegretto"
PERFORMER "Berlin Philharmonic Wind Quintet"
INDEX 01 26:28:37
TRACK 08 AUDIO
TITLE "IV. Allegretto"
PERFORMER "Berlin Philharmonic Wind Quintet"
INDEX 01 29:13:47
TRACK 09 AUDIO
TITLE "Danzi: Wind Quintet in F major Op. 56 No. 3. I. Andante sostenuto. Allegro"
PERFORMER "Berlin Philharmonic Wind Quintet"
INDEX 01 32:14:00
TRACK 10 AUDIO
TITLE "II. Andante"
PERFORMER "Berlin Philharmonic Wind Quintet"
INDEX 01 42:33:00
TRACK 11 AUDIO
TITLE "III. Menuetto. Allegretto"
PERFORMER "Berlin Philharmonic Wind Quintet"
INDEX 01 46:01:37
TRACK 12 AUDIO
TITLE "IV. Allegretto"
PERFORMER "Berlin Philharmonic Wind Quintet"
INDEX 01 51:03:50
TRACK 13 AUDIO
TITLE "Danzi: Quintet for Piano, Oboe, Clarinet, Horn and Bassoon in D minor Op. 41...."
PERFORMER "Berlin Philharmonic Wind Quintet & Love Derwinger"
INDEX 01 55:04:00
TRACK 14 AUDIO
TITLE "II. Andante sostenuto"
PERFORMER "Berlin Philharmonic Wind Quintet & Love Derwinger"
INDEX 01 65:04:00
TRACK 15 AUDIO
TITLE "III. Allegretto"
PERFORMER "Berlin Philharmonic Wind Quintet & Love Derwinger"
INDEX 01 72:34:25

Типичные ошибки в таком файле:

1. В строке FILE неправильно указано, либо искажено (из-за диакритических знаков) имя файла для воспроизведения (и его расширение).
2. В строках TITLE и PERFORMER имеются лишние кавычки. Кавычки должны быть только в начале и в конце фраз.
3. Текст в названиях треков содержит диакритические знаки. Тут два пути - либо избавиться от них (заменив на обычные буквы), либо сохранить такой файл в кодировке UTF-8 (тогда foobar и прочитает и воспроизведёт всё без ошибок)
4. Ошибочные тайминги. Правим циферки в соответствующих строках.

Основное правило: ЕСЛИ ВСЁ ВЕРНО ВОСПРОИЗВОДИТСЯ, ТО ВЕРНО И РАЗРЕЖЕТСЯ.


Сообщение отредактировал sidmak - Понедельник, 08 Октября 18, 00:22
 
doroxovich92Дата: Воскресенье, 14 Октября 18, 17:13 | Сообщение # 21
Группа: Проверенные
Сообщений: 1
Статус: Offline
Здравствуйте!
Прошу прощения, если пишу не туда.  Здесь я новый пользователь, хотя классику слушаю уже более года. Я вчера в три часа  ночи слушал по радио симфонию №3 Шарля Камиля Сен-Санса. Запись 2016 года сделал из радиопередачи. Исполняет симфонический оркестр Бильса ла турна под управлением Стефана Люмьера, за органом Екатерина Грабакова. Запись в мр3. Если кто хочет, то могу поделиться с вами ею, но как это сделать?
С уважением. Андрей.
 
alyoshaДата: Воскресенье, 14 Октября 18, 23:10 | Сообщение # 22
Группа: Модераторы
Сообщений: 1751
Статус: Offline
Здравствуйте, Андрей! У вас почти получилось ) Ответил в вашем посте.
 
intoclassics.net - форум » Музыка » Разговоры о музыке » О файлах cue и прочих мудреных вещах. (Помогите чайнику!)
  • Страница 2 из 2
  • «
  • 1
  • 2
Поиск: