Гайдн Сонаты Walter Olbertz, vol. 1 - intoclassics.net - форум
[ Новые сообщения · Участники · Правила форума · Поиск · RSS ]
Страница 1 из 11
intoclassics.net - форум » Музыка » Ищу записи, ноты, либретто, прочую музыкальную литературу » Гайдн Сонаты Walter Olbertz, vol. 1 (Ищу утерянный первый диск)
Гайдн Сонаты Walter Olbertz, vol. 1
JivienДата: Среда, 26 Сентябрь 12, 01:27 | Сообщение # 1
Группа: Проверенные
Сообщений: 66
Статус: Offline
Друзья, нет ли у кого в lossless формате первого диска с гайдновскими сонатами в исполнении Вальтера Ольбертца (Walter Olbertz) help .Это мое любимое исполнение было утеряно из-за неполадок в компьютере :( . С тех пор плохое настроение. :'( Помогите!
P.S. Mp3 128 не предлагать - в свое время я его в сеть и выложил. Спасибо заранее, даже если не найдется.
 
nibelungДата: Среда, 26 Сентябрь 12, 13:10 | Сообщение # 2
Группа: Проверенные
Сообщений: 1723
Статус: Offline
Вам рип или со сканами?
 
JivienДата: Четверг, 27 Сентябрь 12, 01:18 | Сообщение # 3
Группа: Проверенные
Сообщений: 66
Статус: Offline
Хотя бы рип, но от сканов тоже бы не отказался, их там отродясь не было. Насколько помню - на покойном Демоноиде брал. Спасибо, что откликнулись!
 
nibelungДата: Воскресенье, 30 Сентябрь 12, 17:03 | Сообщение # 4
Группа: Проверенные
Сообщений: 1723
Статус: Offline
Вот ссылка. Тут скан самого диска.
http://narod.ru/disk/61782502001.c28b95febe8fc93cf69a9d566fc7a77b/HaydnSonatasOlbertzVol.1.rar.html
 
JivienДата: Понедельник, 01 Октябрь 12, 16:07 | Сообщение # 5
Группа: Проверенные
Сообщений: 66
Статус: Offline
Дорогой мой, благодаря Вам равновесие в мироздании было восстановлено. Мой нижайший поклон и тысяча благодарностей. Надеюсь, когда-нибудь и я смогу удружить Вам.

Добавлено (01 Октября 12, 15:54)
---------------------------------------------
Вот cue - файл для этого диска, только дайте одинаковые названия файла:
REM GENRE Classical
REM COMMENT
PERFORMER "W.Olbertz"
TITLE "Haydn J. Complete piano sonatas, CD1"
FILE "Walter Olbertz - Joseph Haydn - Die Klaviersonaten (disc 1 of 9).ape" WAVE
TRACK 01 AUDIO
TITLE "Piano sonata N10, C, Hob.XVI.1 - I. Allegro"
INDEX 01 00:00:00
TRACK 02 AUDIO
TITLE "Piano sonata N10, C, Hob.XVI.1 - II. Adagio"
INDEX 00 01:45:60
INDEX 01 01:48:25
TRACK 03 AUDIO
TITLE "Piano sonata N10, C, Hob.XVI.1 - III. Menuetto"
INDEX 00 04:31:62
INDEX 01 04:33:37
TRACK 04 AUDIO
TITLE "Piano sonata N11, B, Hob.XVI.2 - I. Moderato"
INDEX 00 07:02:58
INDEX 01 07:05:40
TRACK 05 AUDIO
TITLE "Piano sonata N11, B, Hob.XVI.2 - II. Largo"
INDEX 00 12:17:30
INDEX 01 12:20:70
TRACK 06 AUDIO
TITLE "Piano sonata N11, B, Hob.XVI.2 - III. Menuetto"
INDEX 00 17:25:52
INDEX 01 17:28:67
TRACK 07 AUDIO
TITLE "Piano sonata N14, C, Hob.XVI.3 - I. Allegretto"
INDEX 00 21:08:40
INDEX 01 21:16:05
TRACK 08 AUDIO
TITLE "Piano sonata N14, C, Hob.XVI.3 - II. Andante"
INDEX 00 23:28:05
INDEX 01 23:29:47
TRACK 09 AUDIO
TITLE "Piano sonata N14, C, Hob.XVI.3 - III. Menuetto"
INDEX 00 26:18:33
INDEX 01 26:20:10
TRACK 10 AUDIO
TITLE "Piano sonata N9, D, Hob.XVI.4 - I. Moderato"
INDEX 00 29:19:53
INDEX 01 29:26:65
TRACK 11 AUDIO
TITLE "Piano sonata N9, D, Hob.XVI.4 - II. Menuetto"
INDEX 00 32:44:38
INDEX 01 32:47:50
TRACK 12 AUDIO
TITLE "Piano sonata N8, A, Hob.XVI.5 - I. Allegro"
INDEX 00 35:36:10
INDEX 01 35:43:00
TRACK 13 AUDIO
TITLE "Piano sonata N8, A, Hob.XVI.5 - II. Menuet"
INDEX 00 39:23:28
INDEX 01 39:26:15
TRACK 14 AUDIO
TITLE "Piano sonata N8, A, Hob.XVI.5 - III. Presto"
INDEX 00 41:48:25
INDEX 01 41:50:35
TRACK 15 AUDIO
TITLE "Piano sonata N13, G, Hob.XVI.6 - I. Allegro"
INDEX 00 44:32:25
INDEX 01 44:40:10
TRACK 16 AUDIO
TITLE "Piano sonata N13, G, Hob.XVI.6 - II. Menuett"
INDEX 00 49:03:40
INDEX 01 49:06:37
TRACK 17 AUDIO
TITLE "Piano sonata N13, G, Hob.XVI.6 - III. Adagio"
INDEX 00 52:55:07
INDEX 01 52:57:37
TRACK 18 AUDIO
TITLE "Piano sonata N13, G, Hob.XVI.6 - IV. Finale. Allegro molto"
INDEX 00 56:42:17
INDEX 01 56:45:37

Добавлено (01 Октября 12, 16:04)
---------------------------------------------
Немного озадачен. Видимо, это другое издание. Мой Tracklist первого диска выглядит так:
СD1
---------------------------------

1. Sonata № 10, C-dur, Hob.XVI.1
01 I. Allegro
02 II. Adagio
03 III. Menuetto

2. Sonata № 11, B-dur, Hob.XVI.2
04 I. Moderato
05 II. Largo
06 III. Menuetto

3. Sonata № 14, C-dur, Hob.XVI.3
07 I. Allegretto
08 II. Andante
09 III. Menuetto

4. Sonata № 9, D-dur, Hob.XVI.4
10 I. Moderato
11 II. Menuetto

5. Sonata № 8, A-dur, Hob.XVI.5
12 I. Allegro
13 II. Menuet
14 III. Presto

6. Sonata № 13, G-dur, Hob.XVI.6
15 I. Allegro
16 II. Menuett
17 III. Adagio
18 IV. Finale. Allegro molto

7. Sonata № 2, C-dur, Hob.XVI.7
19 I. Allegro moderato
20 II. Menuett
21 III. Finale. Allegro

8. Sonata № 1, G-dur, Hob.XVI.8
22 I. Allegro
23 II. Menuett
24 III. Andante
25 IV. Allegro

т.е. еще 2 сонаты. Но все равно огромное спасибо!

Добавлено (01 Октября 12, 16:07)
---------------------------------------------
Вот ссылка: http://www.allmusic.com/album/haydn-die-klaviersonaten-mw0001422899

 
nibelungДата: Вторник, 02 Октябрь 12, 00:51 | Сообщение # 6
Группа: Проверенные
Сообщений: 1723
Статус: Offline
Наверное, у меня первое издание. Сделать второй диск?
 
JivienДата: Вторник, 02 Октябрь 12, 04:20 | Сообщение # 7
Группа: Проверенные
Сообщений: 66
Статус: Offline
Право, мне неловко. Конечно же я буду очень признателен!
 
nibelungДата: Среда, 03 Октябрь 12, 23:25 | Сообщение # 8
Группа: Проверенные
Сообщений: 1723
Статус: Offline
http://narod.ru/disk/61972016001.22e6e6d21540483566d6839311de59a5/HaydnSonatasOlbertzVol.2.rar.html
2-й том (прошу прощения за задержку).
 
JivienДата: Четверг, 04 Октябрь 12, 03:46 | Сообщение # 9
Группа: Проверенные
Сообщений: 66
Статус: Offline
Огромное спасибо! Я Ваш должник. Напишите что Вы любите - может что-то есть. Всех благ!
 
nibelungДата: Суббота, 13 Октябрь 12, 15:38 | Сообщение # 10
Группа: Проверенные
Сообщений: 1723
Статус: Offline
Quote (Jivien)
Напишите что Вы любите - может что-то есть. »

Многое. Это списки разных сложных позиций. Знать бы, из чего выбирать... У вас есть каталог того, что есть? Это тема для форума. У многих ли это есть?
 
intoclassics.net - форум » Музыка » Ищу записи, ноты, либретто, прочую музыкальную литературу » Гайдн Сонаты Walter Olbertz, vol. 1 (Ищу утерянный первый диск)
Страница 1 из 11
Поиск: