Ape & Cue - intoclassics.net - форум
[ Новые сообщения · Участники · Правила форума · Поиск · RSS ]
Страница 1 из 212»
intoclassics.net - форум » Технический раздел » Разное » Ape & Cue
Ape & Cue
hansonДата: Среда, 16 Сентябрь 09, 20:45 | Сообщение # 1
Группа: Проверенные
Сообщений: 30
Статус: Offline
Суть проблемы: Winamp почему-то не воспринимает некоторые индекс-карты в сочетании с файлом Ape. Знающим - больщая просьба поделиться способом восстановления Cue-sheet, насколько я понял, в моем случае ошибка расположена в 6строке. Заранее спасибо!
 
eyeДата: Среда, 16 Сентябрь 09, 21:08 | Сообщение # 2
Группа: Проверенные
Сообщений: 237
Статус: Offline
а не воспринимает только винамп или другие плееры тоже?

Denn sie, die uns das himmlische Feuer leihn,
Die Gotter schenken heiliges Leid uns auch,
Drum bleibe dies. Ein Sohn der Erde
Schein ich; zu lieben gemacht, zu leiden.
 
DimitrisДата: Среда, 16 Сентябрь 09, 21:09 | Сообщение # 3
Группа: Заблокированные
Сообщений: 212
Статус: Offline
Попробуйте расшить cue в потрековый ape crazy

Стать добрым! Кто не хочет добрым стать?
Какая бы настала благодать,
Но вот беда - на нашей злой планете
Мы рады жить в согласье и в совете,
Да обстоятельства не таковы.

Б.Брехт.

 
hansonДата: Среда, 16 Сентябрь 09, 21:20 | Сообщение # 4
Группа: Проверенные
Сообщений: 30
Статус: Offline
Поскольку кроме винампа ничем не пользуюсь, не знаю... Насчет треков: это не всегда помогает, иногда случаются нежелательные паузы/щелчки, но в этом случае попробую так.

Добавлено (16 Сентябрь 09, 21:20)
---------------------------------------------
собственно, Cue-файл:

REM GENRE Classical
REM DISCID 65115907
REM COMMENT "ExactAudioCopy v0.95b4"
PERFORMER "Odhecaton"
TITLE "Josquin Desprez"
FILE "Odhecaton - Josquin Desprez.wav" WAVE
TRACK 01 AUDIO
TITLE "Jacob Obrecht, Parce Domine"
PERFORMER "Odhecaton"
INDEX 01 00:00:00
TRACK 02 AUDIO
TITLE "Layset Compere, In nomine Jesu "
PERFORMER "Odhecaton"
INDEX 00 02:01:05
INDEX 01 02:04:18
INDEX 02 04:07:68
INDEX 03 05:47:62
INDEX 04 07:33:42
INDEX 05 09:18:17
INDEX 06 11:38:15
INDEX 07 14:00:03
INDEX 08 16:37:33
INDEX 09 19:09:12
TRACK 03 AUDIO
TITLE "Josquin Desprez, O Domine Jesu Christe"
PERFORMER "Odhecaton"
INDEX 00 21:45:35
INDEX 01 21:49:45
INDEX 02 23:26:08
INDEX 03 25:12:59
INDEX 04 26:48:30
INDEX 05 28:17:36
TRACK 04 AUDIO
TITLE "Josquin Desprez, Qui velatus facie fuisti"
PERFORMER "Odhecaton"
INDEX 00 31:09:18
INDEX 01 31:12:51
INDEX 02 33:18:19
INDEX 03 35:31:02
INDEX 04 38:25:47
INDEX 05 40:38:29
INDEX 06 42:41:51
TRACK 05 AUDIO
TITLE "Gaspar van Weerbecke, Tenebrae factae sunt"
PERFORMER "Odhecaton"
INDEX 00 46:43:29
INDEX 01 46:47:53
TRACK 06 AUDIO
TITLE "O tristu fatale die"
PERFORMER "Odhecaton"
INDEX 00 49:40:70
INDEX 01 49:46:43
TRACK 07 AUDIO
TITLE "Josquin Desprez, Miserere mei, Deus"
PERFORMER "Odhecaton"
INDEX 00 57:07:60
INDEX 01 57:16:63
INDEX 02 63:31:66
INDEX 03 68:17:62

Пытаюсь понять, где, собственно строка 6, и что это все-таки за ошибка

 
sirdragonДата: Среда, 16 Сентябрь 09, 21:25 | Сообщение # 5
Группа: Проверенные
Сообщений: 424
Статус: Offline
Самые частые причины непроигрывания через кью в 5-й строчке (она же 6-я).

FILE "Seixas - Missa - Dixit Dominus, Tantum Ergo, Organ Sonatas.ape" WAVE

1. Несовпадение расширений в кью и в названии файла.
FILE "Seixas - Missa - Dixit Dominus, Tantum Ergo, Organ Sonatas.ape" WAVE - 5-я строчка в кью
Seixas - Missa - Dixit Dominus, Tantum Ergo, Organ Sonatas.wav - название потокового файла (flac, wav, ape)
Надо в кью прописать правильное расширение.

2. Наличие всяческих умляутов (диакритические знаки критичны для разных ОС) и незримых для человечьего глаза знаков в кью.
Проще всего потоковый файл переименовать - назвать вручную попроще - например seixas-spirituals.ape и это же название вписать в кью.

Добавлено (16 Сентябрь 09, 21:25)
---------------------------------------------
ps. Вам надо просто в 6-й строчке .wav поменять на .ape


だわいてじてづるずの (c) 猫レオポルド

Сообщение отредактировал sirdragon - Среда, 16 Сентябрь 09, 21:28
 
hansonДата: Среда, 21 Октябрь 09, 00:10 | Сообщение # 6
Группа: Проверенные
Сообщений: 30
Статус: Offline
Спасибо, пробую.

Добавлено (16 Сентябрь 09, 21:34)
---------------------------------------------
Сработало! Странно, но ни одной подобной ошибки с Flac не встречал.

Добавлено (21 Октябрь 09, 00:10)
---------------------------------------------
Прошу прощения за безграмотность, но не могу исправить следующий cue:

TITLE "Messes de l'Homme Armé"
PERFORMER "Bernard Fabré-Garrus; A Sei Voci"
REM GENRE "Classical"
REM DATE 2003
FILE "CDImage.ape" WAVE
TRACK 01 AUDIO
TITLE "1 Plain-chant : Hymne Aeterna Christi Munera (Hymne des Martyrs)"
ISRC FRZ130100301
INDEX 01 00:00:00
TRACK 02 AUDIO
TITLE "Missa I'Homme Armé sexti toni Kyrie"
ISRC FRZ130100302
INDEX 01 04:35:57
TRACK 03 AUDIO
TITLE "Gloria"
ISRC FRZ130100303
INDEX 01 07:56:20
TRACK 04 AUDIO
TITLE "Credo"
ISRC FRZ130100304
INDEX 01 14:08:27
TRACK 05 AUDIO
TITLE "Sanctus"
ISRC FRZ130100305
INDEX 01 23:30:02
TRACK 06 AUDIO
TITLE "Agnus Dei"
ISRC FRZ130100311
INDEX 01 28:22:42
TRACK 07 AUDIO
TITLE "Plain-chant : Sanctorum Meritis (Hymne des Martyrs)"
ISRC FRZ130100311
INDEX 00 35:12:56
INDEX 01 35:22:56
TRACK 08 AUDIO
TITLE "Missa I'Homme Armé super voces musicales Kyrie"
ISRC FRZ130100312
INDEX 01 38:45:49
TRACK 09 AUDIO
TITLE "Gloria"
ISRC FRZ130100313
INDEX 01 42:40:44
TRACK 10 AUDIO
TITLE "Credo"
ISRC FRZ130100314
INDEX 01 48:58:56
TRACK 11 AUDIO
TITLE "Sanctus"
ISRC FRZ130100315
INDEX 01 57:41:27
TRACK 12 AUDIO
TITLE "Agnus Dei"
ISRC FRZ130100316
INDEX 01 65:49:61

Расширение вроде бы верное, название без умляутов и прочего FILE "CDImage.ape" WAVE, так или иначе винампом не открывается. Просьба поделиться советом: как починить кью, или создать новый, если это возможно...

 
ОболемпскийДата: Среда, 21 Октябрь 09, 00:25 | Сообщение # 7
Группа: Заблокированные
Сообщений: 47
Статус: Offline
Попробуйте стереть эту строчку:

INDEX 00 35:12:56

 
hansonДата: Среда, 21 Октябрь 09, 00:31 | Сообщение # 8
Группа: Проверенные
Сообщений: 30
Статус: Offline
Увы, не помогло.
 
taburetkineДата: Среда, 21 Октябрь 09, 01:11 | Сообщение # 9
Группа: Проверенные
Сообщений: 41
Статус: Offline
Мне часто помогала следующая процедура. Переименуйте файлы: 1.ape и 1.cue, внесите соответствующие изменения в cue-файл, а также проверьте, не слишком ли у Вас получается длинный путь к файлу (много вложенных папок с длинными названиями).
 
ОболемпскийДата: Среда, 21 Октябрь 09, 01:12 | Сообщение # 10
Группа: Заблокированные
Сообщений: 47
Статус: Offline
Попробуйте стереть все эти номера ISRC
и AUDIO


Сообщение отредактировал Оболемпский - Среда, 21 Октябрь 09, 01:14
 
hansonДата: Среда, 21 Октябрь 09, 09:14 | Сообщение # 11
Группа: Проверенные
Сообщений: 30
Статус: Offline
Спасибо за рекомендации; пробовал и то и это, и в комбинациях. Не помогает даже деление на треки - винамп все равно выдает пустой плейлист. Наверное, дело все-таки в ape/
 
ОболемпскийДата: Среда, 21 Октябрь 09, 13:35 | Сообщение # 12
Группа: Заблокированные
Сообщений: 47
Статус: Offline
Что напоминает мне еврейский анекдот:

У одного еврея начали дохнуть курицы в курятнике. Он не смог с этим справиться и пошел к раввину.
Раввин ему говорит: а как ты ложишь корм курицам?
Тот ему отвечает: как? да обычно... кучкой...
Раввин сразу: Нет, нет, нет. Надо в форме пирамиды.
Ну, еврей пошел делать что сказали. А курицы все равно мрут. Пошел обратно к раввину.
Ну что, ложил как я сказал? - Да, а все равно мрут.
Ну... тогда я знаю что делать. Ты им ложи в кружок!
Еврей с надеждой пошел обратно домой.
Приходит через пару дней к раввину и плачет: все! нет больше ни одной, все подохли! Ай...
А раввин качает головой и говорит задумчиво: Ах, какая жалость... а у меня еще столько опций было...

 
vladimir_2008_rivДата: Среда, 21 Октябрь 09, 16:12 | Сообщение # 13
Группа: Проверенные
Сообщений: 13
Статус: Offline
Огромная просьба к знающим - пожалуйста подскажите КАК пользоваться файлом КУЕ ? Полагаю он (файл КУЕ) делит основной файл на треки,
но как это делается - совсем без понятия... В качестве бонуса за помощь - 3 смешных(!!!)анекдота.
 
AlexeiДата: Среда, 21 Октябрь 09, 17:12 | Сообщение # 14
Группа: Проверенные
Сообщений: 216
Статус: Offline
vladimir_2008_rivvladimir_2008_riv, все просто, если Вы откроете куе с помощью блокнота, то увидете, что в нем написаны все данные по основному файлу lossless, также Вы сможете менять куе(в нем часто встречаются ошибки, связанные с расширением, лучше исправить), можете даже написать свой куе в блокноте, а если Вы откроете куе плеером, лучше всего AIMP(он бесплатен и открывает даже дефектные куе, в отличие от винампа), то будет проигран весь треклист. Сначала мне это все казалось неудобным, привычнее по трекам, я резал на треки с помощью CUE-splitter'a, но теперь я оценил удобство этой системы, когда диск состоит всего из двух файлов.
С Вас анектоды! :)


Сообщение отредактировал Alexei - Среда, 21 Октябрь 09, 17:12
 
musicianДата: Среда, 21 Октябрь 09, 19:42 | Сообщение # 15
Группа: Пользователи
Сообщений: 4
Статус: Offline
Quote (Alexei)
vladimir_2008_riv

Возьмите здесь программу :
http://www.medieval.it/index.php?option=com_content&task=view&id=28&Itemid=70
Там же - объяснение в картинках , не забудьте указывать место распаковки ...
 
intoclassics.net - форум » Технический раздел » Разное » Ape & Cue
Страница 1 из 212»
Поиск:
Доброе утро!